#TITLE:Don't Hurt Me My Healer Op;
#SUBTITLE:;
#ARTIST:Dancing Monkeys Project;
#TITLETRANSLIT:;
#SUBTITLETRANSLIT:;
#ARTISTTRANSLIT:;
#GENRE:;
#CREDIT:Gorilla v1.1.3 (Dancing Monkeys v1.06);
#BANNER:64cf31f0f9cdbec36f6a6b4eea9bc615b1089328r1-1024-576v2_uhq.png;
#BACKGROUND:1200x1200bb.png;
#LYRICSPATH:;
#CDTITLE:;
#MUSIC:Don't Hurt Me My Healer Op.mp3;
#OFFSET:-1.195578;
#SAMPLESTART:36.222790;
#SAMPLELENGTH:12.000000;
#SELECTABLE:YES;
#BPMS:0.000000=171.294998
;
#STOPS:
;
#BGCHANGES:;
#KEYSOUNDS:;
#ATTACKS:;

//---------------dance-single - Basic----------------
#NOTES:
     dance-single:
     Basic:
     Easy:
     4:
     0.271037,0.303312,0.000000,0.044380,0.000000,171.000000,171.000000,0.000000,4.000000,0.000000,0.000000,0.271037,0.303312,0.000000,0.044380,0.000000,171.000000,171.000000,0.000000,4.000000,0.000000,0.000000:
0001
0000
0100
0000
,
1000
0000
0010
0000
,
0100
0000
0001
0000
,
0100
0000
0001
0000
,
0010
0000
1000
0000
,
0010
0000
0001
0000
,
1000
0000
0010
0010
,
0010
0000
1000
0001
,
1000
0001
1000
0001
,
1000
0001
1000
0001
,
0010
0100
0010
0100
,
0010
0100
0010
0100
,
0001
1000
0001
1000
,
0001
1000
0001
1000
,
0001
0001
0001
1000
,
1000
0000
1000
0000
0010
0000
0000
0010
,
0000
0000
0000
0010
0000
0100
0000
0000
,
0000
0100
0000
0010
0000
0000
0000
0010
,
0000
0000
0000
0001
0000
0000
0000
1000
,
0000
0000
0000
1000
0000
0010
0000
0000
,
0000
0010
0000
1000
0000
0000
0000
1000
,
0000
0000
0000
0001
0000
0000
0000
0001
,
0000
0001
0000
0000
0100
0000
0000
0000
,
2000
0000
0000
0000
,
0000
0000
0000
0000
,
3000
0020
0000
0000
,
0000
0000
0000
0000
,
0000
0030
0000
1000
0000
0000
0000
1000
,
0000
0000
0001
0001
,
0000
2000
0000
0000
,
0000
0000
0000
0000
,
3000
0010
0100
0001
,
0010
1000
0001
0010
,
0100
1000
0010
0100
,
0001
0010
0100
0001
,
0100
0001
0100
0001
,
0100
0001
0100
0010
,
0000
0001
0000
1000
,
0000
0010
0000
0100
,
0000
0001
0000
1000
,
0000
0001
0000
1000
,
0000
0010
0000
1000
,
0000
0002
0000
0000
,
0003
1000
0010
0001
,
1000
0010
0100
1000
,
0001
0100
0001
0010
,
0100
1000
0010
1000
,
0001
0010
0100
0010
,
0100
1000
0001
0010
,
1000
0100
0010
0100
,
0010
0001
1000
0001
,
1000
0001
0100
0100
,
0010
0010
1000
0001
,
0100
0100
0010
0010
,
0100
0100
0010
0010
,
1000
0001
1000
0001
,
1000
0001
0010
0100
,
0100
0000
0001
0000
,
0001
0000
0100
0000
,
0100
0000
1000
0000
,
1000
0000
0100
0100
;

//---------------dance-single - Basic----------------
#NOTES:
     dance-single:
     :
     Beginner:
     4:
     0.166426,0.169200,0.000000,0.044380,0.000000,105.000000,105.000000,0.000000,4.000000,0.000000,0.000000,0.166426,0.169200,0.000000,0.044380,0.000000,105.000000,105.000000,0.000000,4.000000,0.000000,0.000000:
// measure 0
0001
0000
0100
0000
,  // measure 1
1000
0000
0010
0000
,  // measure 2
0100
0000
0001
0000
,  // measure 3
0100
0000
0001
0000
,  // measure 4
0010
0000
1000
0000
,  // measure 5
0010
0000
0001
0000
,  // measure 6
1000
0000
0010
0000
,  // measure 7
0001
0000
0010
0000
,  // measure 8
0100
0000
0001
0000
,  // measure 9
0010
0000
1000
0000
,  // measure 10
0100
0000
0001
0000
,  // measure 11
1000
0000
0100
0000
,  // measure 12
0010
0000
0100
0000
,  // measure 13
0010
0000
0100
0000
,  // measure 14
1000
0000
0010
0000
,  // measure 15
0000
0000
0010
0000
,  // measure 16
0000
0000
0000
0010
0000
0000
0000
0100
,  // measure 17
0000
0000
0000
0010
0000
0000
0000
0010
,  // measure 18
0000
0000
0000
0100
0000
0000
0000
1000
,  // measure 19
0000
0000
0000
1000
0000
0000
0000
0100
,  // measure 20
0000
0000
0000
1000
0000
0000
0000
1000
,  // measure 21
0000
0000
0000
0001
0000
0000
0000
0001
,  // measure 22
0000
0000
0000
0010
0000
0000
2000
0000
,  // measure 23
0000
0000
0000
0000
,  // measure 24
0000
0000
0000
0000
,  // measure 25
3000
0020
0000
0000
,  // measure 26
0000
0000
0000
0000
,  // measure 27
0030
0000
0000
1000
0000
0000
0000
1000
,  // measure 28
0000
0010
0000
0001
,  // measure 29
0000
2000
0000
0000
,  // measure 30
0000
0000
0000
0000
,  // measure 31
3000
0000
0100
0000
,  // measure 32
0010
0000
0001
0000
,  // measure 33
0100
0000
0010
0000
,  // measure 34
0001
0000
1000
0000
,  // measure 35
0010
0000
0001
0000
,  // measure 36
1000
0000
0100
0000
,  // measure 37
0001
0000
0010
0000
,  // measure 38
0100
0000
0001
0000
,  // measure 39
1000
0000
0000
0000
,  // measure 40
0000
0000
0000
0000
,  // measure 41
0000
0000
0000
1000
,  // measure 42
0000
0002
0000
0000
,  // measure 43
0003
0000
0010
0000
,  // measure 44
1000
0000
0100
0000
,  // measure 45
0010
0000
0001
0000
,  // measure 46
0100
0000
0010
0000
,  // measure 47
0001
0000
1000
0000
,  // measure 48
0100
0000
0001
0000
,  // measure 49
1000
0000
0001
0000
,  // measure 50
0010
0000
0100
0000
,  // measure 51
1000
0000
0001
0000
,  // measure 52
0010
0000
1000
0000
,  // measure 53
0010
0000
0001
0000
,  // measure 54
0100
0000
0010
0000
,  // measure 55
0100
0000
0010
0000
,  // measure 56
1000
0000
0010
0000
,  // measure 57
0100
0000
0001
0000
,  // measure 58
0010
0000
0100
0000
,  // measure 59
0010
0000
1000
0000
,  // measure 60
0001
0000
0100
0000
,  // measure 61
0010
0000
0000
0000
;
