#TITLE:Don't Hurt Me My Healer Ed;
#SUBTITLE:;
#ARTIST:Dancing Monkeys Project;
#TITLETRANSLIT:;
#SUBTITLETRANSLIT:;
#ARTISTTRANSLIT:;
#GENRE:;
#CREDIT:Gorilla v1.1.3 (Dancing Monkeys v1.06);
#BANNER:64cf31f0f9cdbec36f6a6b4eea9bc615b1089328r1-1024-576v2_uhq.png;
#BACKGROUND:1200x1200bb.png;
#LYRICSPATH:;
#CDTITLE:;
#MUSIC:Don't Hurt Me My Healer Ed.mp3;
#OFFSET:-0.120703;
#SAMPLESTART:38.571953;
#SAMPLELENGTH:12.000000;
#SELECTABLE:YES;
#BPMS:0.000000=156.042007
;
#STOPS:
;
#BGCHANGES:;
#KEYSOUNDS:;
#ATTACKS:;

//---------------dance-single - Basic----------------
#NOTES:
     dance-single:
     Basic:
     Easy:
     4:
     0.294812,0.288334,0.000000,0.099856,0.000000,186.000000,186.000000,0.000000,9.000000,0.000000,0.000000,0.294812,0.288334,0.000000,0.099856,0.000000,186.000000,186.000000,0.000000,9.000000,0.000000,0.000000:
0002
0000
0000
0000
,
0023
0000
0000
0000
,
2030
0000
0000
3000
,
0002
0000
0000
0000
,
2003
0000
0000
0000
,
3020
0000
0000
0030
,
0001
0001
0001
1000
,
1000
1000
0001
0001
,
0001
1000
0001
1000
,
0010
0001
0100
0010
,
1000
0001
0010
0100
,
1000
0000
0000
0000
,
0000
0100
0010
0010
,
0001
0010
0010
1000
,
1000
0001
0001
0010
,
0010
1000
1000
0010
,
0010
1000
1000
0001
,
0001
0001
1000
1000
,
1000
0001
1000
0001
,
1000
0010
0010
0010
,
2000
0000
0000
0000
,
3000
0000
0000
0000
,
0020
0000
0000
0000
,
0000
0030
0000
0000
,
1000
0010
0001
0010
,
1000
0100
0001
0010
,
0001
0100
0001
1000
,
0001
0010
1000
0001
,
0010
1000
0100
0010
,
0000
0000
0000
0000
,
1000
0001
0100
0010
,
1000
0001
0100
0010
,
1000
0001
0100
0010
,
1000
0001
0100
0010
,
1000
0001
0100
0010
,
0001
1000
0100
0010
,
0001
0100
0001
1000
,
1000
0001
0000
0000
,
1000
0001
0100
0001
,
0100
1000
0100
0001
,
0010
0100
0001
1000
,
0010
0001
0100
0010
,
0001
0100
0001
1000
,
0001
1000
0100
0010
,
1000
0001
0100
0010
,
1000
0010
0100
0000
,
0001
0001
1000
0100
,
0010
0010
0010
1000
,
1000
1000
0010
0010
,
0001
0001
0001
1000
,
1000
1000
0010
0010
,
0010
1000
1000
1000
,
0001
0001
0001
0010
,
0010
0010
0100
0100
,
0100
0001
1000
0010
,
0100
1000
0001
0100
,
1000
0001
0010
0100
,
0002
0000
0000
0003
;

//---------------dance-single - Basic----------------
#NOTES:
     dance-single:
     :
     Beginner:
     4:
     0.158501,0.160185,0.000000,0.011095,0.000000,100.000000,100.000000,0.000000,1.000000,0.000000,0.000000,0.158501,0.160185,0.000000,0.011095,0.000000,100.000000,100.000000,0.000000,1.000000,0.000000,0.000000:
// measure 0
0001
0000
0000
0000
,  // measure 1
0010
0000
0000
0000
,  // measure 2
1000
0000
0000
0000
,  // measure 3
0001
0000
0000
0000
,  // measure 4
1000
0000
0000
0000
,  // measure 5
0010
0000
0000
0000
,  // measure 6
0010
0000
0001
0000
,  // measure 7
0100
0000
0010
0000
,  // measure 8
0001
0000
0100
0000
,  // measure 9
0010
0000
0100
0000
,  // measure 10
1000
0000
0010
0000
,  // measure 11
1000
0000
0000
0000
,  // measure 12
0000
0100
0000
0010
,  // measure 13
0000
0010
0000
1000
,  // measure 14
0000
0001
0000
0010
,  // measure 15
0000
1000
0000
0010
,  // measure 16
0000
1000
0000
0100
,  // measure 17
0000
0001
0000
1000
,  // measure 18
0000
0010
0000
0001
,  // measure 19
0000
0100
0000
1000
,  // measure 20
1000
0000
0000
0000
,  // measure 21
0000
0000
0000
0000
,  // measure 22
0010
0000
0000
0000
,  // measure 23
0000
0000
0000
0000
,  // measure 24
1000
0000
0001
0000
,  // measure 25
1000
0000
0001
0000
,  // measure 26
0100
0000
0010
0000
,  // measure 27
0001
0000
1000
0000
,  // measure 28
0010
0000
0100
0000
,  // measure 29
0000
0000
0000
0000
,  // measure 30
1000
0000
0100
0000
,  // measure 31
1000
0000
0100
0000
,  // measure 32
1000
0000
0100
0000
,  // measure 33
1000
0000
0100
0000
,  // measure 34
1000
0000
0100
0000
,  // measure 35
0001
0000
0100
0000
,  // measure 36
0010
0000
0001
0000
,  // measure 37
1000
0000
0001
0000
,  // measure 38
0001
0000
0100
0000
,  // measure 39
0100
0000
0100
0000
,  // measure 40
0010
0000
0001
0000
,  // measure 41
0010
0000
0100
0000
,  // measure 42
0001
0000
0010
0000
,  // measure 43
0001
0000
0100
0000
,  // measure 44
1000
0000
0100
0000
,  // measure 45
1000
0000
0100
0000
,  // measure 46
0001
0000
1000
0000
,  // measure 47
0001
0000
0010
0000
,  // measure 48
0100
0000
0010
0000
,  // measure 49
0001
0000
0010
0000
,  // measure 50
0100
0000
0001
0000
,  // measure 51
0010
0000
0100
0000
,  // measure 52
0010
0000
0001
0000
,  // measure 53
1000
0000
0001
0000
,  // measure 54
0100
0000
1000
0000
,  // measure 55
0100
0000
0001
0000
,  // measure 56
1000
0000
0010
0000
,  // measure 57
0002
0000
0000
0003
;
