#TITLE:Sonic R - DIAMOND IN THE SKY ft. Hatsune Miku Remix by yell0;
#SUBTITLE:;
#ARTIST:Dancing Monkeys Project;
#TITLETRANSLIT:;
#SUBTITLETRANSLIT:;
#ARTISTTRANSLIT:;
#GENRE:;
#CREDIT:Gorilla v1.1.3 (Dancing Monkeys v1.06);
#BANNER:maxresdefautlt.png;
#BACKGROUND:artworks-8SnPG47Cppoms5ff-nBiVZg-t500x500.png;
#LYRICSPATH:;
#CDTITLE:;
#MUSIC:Sonic R - DIAMOND IN THE SKY ft. Hatsune Miku Remix by yell0.mp3;
#OFFSET:-0.502041;
#SAMPLESTART:38.765079;
#SAMPLELENGTH:12.000000;
#SELECTABLE:YES;
#BPMS:0.000000=156.809006
;
#STOPS:
;
#BGCHANGES:;
#KEYSOUNDS:;
#ATTACKS:;

//---------------dance-single - Basic----------------
#NOTES:
     dance-single:
     Basic:
     Easy:
     1:
     0.166454,0.174776,0.000000,0.112987,0.000000,330.000000,330.000000,0.000000,32.000000,0.000000,0.000000,0.166454,0.174776,0.000000,0.112987,0.000000,330.000000,330.000000,0.000000,32.000000,0.000000,0.000000:
// measure 0
0000
0000
2000
0000
,  // measure 1
0000
0000
3000
0020
,  // measure 2
0000
0000
0030
2000
,  // measure 3
0000
0000
3000
0020
,  // measure 4
0000
0000
0030
0200
,  // measure 5
0000
0000
0000
0300
,  // measure 6
0002
0000
0000
0003
,  // measure 7
2000
0000
0000
3000
,  // measure 8
0010
0020
0000
0030
,  // measure 9
1000
1000
0020
0000
,  // measure 10
0000
0030
0010
0000
,  // measure 11
0010
0100
1000
1000
,  // measure 12
1000
0100
0100
0100
,  // measure 13
0001
0001
0001
0100
,  // measure 14
0100
0100
0001
0001
,  // measure 15
1000
1000
1000
0010
,  // measure 16
0010
1000
1000
0010
,  // measure 17
0010
1000
1000
0010
,  // measure 18
0010
0010
1000
1000
,  // measure 19
1000
1000
0010
0010
,  // measure 20
0010
0010
0001
0001
,  // measure 21
0001
0001
1000
1000
,  // measure 22
1000
0010
0010
0010
,  // measure 23
0010
0100
0100
0100
,  // measure 24
0100
0001
0001
0001
,  // measure 25
0001
1000
1000
1000
,  // measure 26
1000
0010
0010
0010
,  // measure 27
0010
1000
1000
1000
,  // measure 28
1000
0001
0001
0001
,  // measure 29
0001
0010
0010
1000
,  // measure 30
1000
1000
0010
1000
,  // measure 31
0001
0010
0010
0010
,  // measure 32
1000
0100
0010
0001
,  // measure 33
0020
0000
0000
0000
,  // measure 34
0030
1000
0010
0100
,  // measure 35
0001
0010
1000
0010
,  // measure 36
0100
0001
1000
0010
,  // measure 37
0100
0002
0000
0000
,  // measure 38
0003
1000
0010
0100
,  // measure 39
0001
0010
0100
0001
,  // measure 40
0010
0200
0000
0000
,  // measure 41
0000
0300
0001
0010
,  // measure 42
1000
0010
1000
0010
,  // measure 43
0100
0001
1000
0010
,  // measure 44
1000
0010
2000
0000
,  // measure 45
0000
3000
0020
0000
,  // measure 46
0000
0030
1000
0010
,  // measure 47
1000
0001
0010
1000
,  // measure 48
0010
0100
0001
0020
,  // measure 49
0000
0030
1000
0002
,  // measure 50
0000
0000
0003
2000
,  // measure 51
0000
3000
0100
0100
,  // measure 52
0100
0001
0001
2000
,  // measure 53
0000
0000
0000
0000
,  // measure 54
0000
0000
0000
0000
,  // measure 55
3000
0001
0001
0100
,  // measure 56
0100
0010
0010
1000
,  // measure 57
1000
0001
0001
0100
,  // measure 58
0100
0001
0001
1000
,  // measure 59
1000
0010
0010
1000
,  // measure 60
1000
0010
0010
1000
,  // measure 61
1000
0001
0001
0100
,  // measure 62
0100
0001
0001
0010
,  // measure 63
0010
1000
1000
0010
,  // measure 64
0010
1000
1000
0001
,  // measure 65
0001
0100
0100
0001
,  // measure 66
0001
0100
0100
1000
,  // measure 67
1000
0010
0010
1000
,  // measure 68
1000
0001
0001
0100
,  // measure 69
0100
0001
0001
1000
,  // measure 70
1000
0010
0010
1000
,  // measure 71
1000
0100
0100
0001
,  // measure 72
0001
0010
0010
1000
,  // measure 73
1000
0010
0010
2000
,  // measure 74
3000
0002
0003
0020
,  // measure 75
0000
0000
0000
0030
,  // measure 76
0010
0100
0100
0001
,  // measure 77
0001
1000
1000
0001
,  // measure 78
0001
0100
0100
0001
,  // measure 79
0001
1000
1000
0010
,  // measure 80
0010
1000
1000
0010
,  // measure 81
0010
0001
0001
0100
,  // measure 82
0100
0001
0001
0010
,  // measure 83
0010
1000
1000
0010
,  // measure 84
0010
0100
0100
0001
,  // measure 85
0001
0010
0010
0100
,  // measure 86
0100
0001
0001
1000
,  // measure 87
1000
0020
0000
0000
,  // measure 88
0000
0030
0001
1000
,  // measure 89
1000
0010
0010
1000
,  // measure 90
1000
0010
0010
0100
,  // measure 91
0100
0001
0002
0000
,  // measure 92
0000
0000
0003
1000
,  // measure 93
0100
0001
0010
0100
,  // measure 94
0010
0001
1000
0010
,  // measure 95
0100
0001
1000
0010
,  // measure 96
0100
0001
0010
1000
,  // measure 97
0010
0100
0001
2000
,  // measure 98
0000
0000
0000
3000
,  // measure 99
0100
0001
1000
0010
,  // measure 100
0010
0010
0010
0010
,  // measure 101
2000
0000
3002
0000
,  // measure 102
2003
0000
0000
0000
,  // measure 103
3000
0020
0000
0000
,  // measure 104
0030
2000
0000
0000
,  // measure 105
3000
0200
0000
0000
,  // measure 106
0300
0020
0000
0000
,  // measure 107
0030
2000
0000
0000
,  // measure 108
0000
0000
0000
0000
,  // measure 109
0000
0000
0000
0000
,  // measure 110
3000
0000
0000
0000
;

//---------------dance-single - Standard----------------
#NOTES:
     dance-single:
     Standard:
     Medium:
     1:
     0.001513,0.000066,0.003531,0.000000,0.000000,3.000000,2.000000,1.000000,0.000000,0.000000,0.000000,0.001513,0.000066,0.003531,0.000000,0.000000,3.000000,2.000000,1.000000,0.000000,0.000000,0.000000:
1100
1000
0000
0000
0000
0000
0000
0000
,
0000
0000
0000
0000
0000
0000
0000
0000
,
0000
0000
0000
0000
0000
0000
0000
0000
,
0000
0000
0000
0000
0000
0000
0000
0000
,
0000
0000
0000
0000
0000
0000
0000
0000
,
0000
0000
0000
0000
0000
0000
0000
0000
,
0000
0000
0000
0000
0000
0000
0000
0000
,
0000
0000
0000
0000
0000
0000
0000
0000
,
0000
0000
0000
0000
0000
0000
0000
0000
,
0000
0000
0000
0000
0000
0000
0000
0000
,
0000
0000
0000
0000
0000
0000
0000
0000
,
0000
0000
0000
0000
0000
0000
0000
0000
,
0000
0000
0000
0000
0000
0000
0000
0000
,
0000
0000
0000
0000
0000
0000
0000
0000
,
0000
0000
0000
0000
0000
0000
0000
0000
,
0000
0000
0000
0000
0000
0000
0000
0000
,
0000
0000
0000
0000
0000
0000
0000
0000
,
0000
0000
0000
0000
0000
0000
0000
0000
,
0000
0000
0000
0000
0000
0000
0000
0000
,
0000
0000
0000
0000
0000
0000
0000
0000
,
0000
0000
0000
0000
0000
0000
0000
0000
,
0000
0000
0000
0000
0000
0000
0000
0000
,
0000
0000
0000
0000
0000
0000
0000
0000
,
0000
0000
0000
0000
0000
0000
0000
0000
,
0000
0000
0000
0000
0000
0000
0000
0000
,
0000
0000
0000
0000
0000
0000
0000
0000
,
0000
0000
0000
0000
0000
0000
0000
0000
,
0000
0000
0000
0000
0000
0000
0000
0000
,
0000
0000
0000
0000
0000
0000
0000
0000
,
0000
0000
0000
0000
0000
0000
0000
0000
,
0000
0000
0000
0000
0000
0000
0000
0000
,
0000
0000
0000
0000
0000
0000
0000
0000
,
0000
0000
0000
0000
0000
0000
0000
0000
,
0000
0000
0000
0000
0000
0000
0000
0000
,
0000
0000
0000
0000
0000
0000
0000
0000
,
0000
0000
0000
0000
0000
0000
0000
0000
,
0000
0000
0000
0000
0000
0000
0000
0000
,
0000
0000
0000
0000
0000
0000
0000
0000
,
0000
0000
0000
0000
0000
0000
0000
0000
,
0000
0000
0000
0000
0000
0000
0000
0000
,
0000
0000
0000
0000
0000
0000
0000
0000
,
0000
0000
0000
0000
0000
0000
0000
0000
,
0000
0000
0000
0000
0000
0000
0000
0000
,
0000
0000
0000
0000
0000
0000
0000
0000
,
0000
0000
0000
0000
0000
0000
0000
0000
,
0000
0000
0000
0000
0000
0000
0000
0000
,
0000
0000
0000
0000
0000
0000
0000
0000
,
0000
0000
0000
0000
0000
0000
0000
0000
,
0000
0000
0000
0000
0000
0000
0000
0000
,
0000
0000
0000
0000
0000
0000
0000
0000
,
0000
0000
0000
0000
0000
0000
0000
0000
,
0000
0000
0000
0000
0000
0000
0000
0000
,
0000
0000
0000
0000
0000
0000
0000
0000
,
0000
0000
0000
0000
0000
0000
0000
0000
,
0000
0000
0000
0000
0000
0000
0000
0000
,
0000
0000
0000
0000
0000
0000
0000
0000
,
0000
0000
0000
0000
0000
0000
0000
0000
,
0000
0000
0000
0000
0000
0000
0000
0000
,
0000
0000
0000
0000
0000
0000
0000
0000
,
0000
0000
0000
0000
0000
0000
0000
0000
,
0000
0000
0000
0000
0000
0000
0000
0000
,
0000
0000
0000
0000
0000
0000
0000
0000
,
0000
0000
0000
0000
0000
0000
0000
0000
,
0000
0000
0000
0000
0000
0000
0000
0000
,
0000
0000
0000
0000
0000
0000
0000
0000
,
0000
0000
0000
0000
0000
0000
0000
0000
,
0000
0000
0000
0000
0000
0000
0000
0000
,
0000
0000
0000
0000
0000
0000
0000
0000
,
0000
0000
0000
0000
0000
0000
0000
0000
,
0000
0000
0000
0000
0000
0000
0000
0000
,
0000
0000
0000
0000
0000
0000
0000
0000
,
0000
0000
0000
0000
0000
0000
0000
0000
,
0000
0000
0000
0000
0000
0000
0000
0000
,
0000
0000
0000
0000
0000
0000
0000
0000
,
0000
0000
0000
0000
0000
0000
0000
0000
,
0000
0000
0000
0000
0000
0000
0000
0000
,
0000
0000
0000
0000
0000
0000
0000
0000
,
0000
0000
0000
0000
0000
0000
0000
0000
,
0000
0000
0000
0000
0000
0000
0000
0000
,
0000
0000
0000
0000
0000
0000
0000
0000
,
0000
0000
0000
0000
0000
0000
0000
0000
,
0000
0000
0000
0000
0000
0000
0000
0000
,
0000
0000
0000
0000
0000
0000
0000
0000
,
;

//---------------dance-single - Heavy----------------
#NOTES:
     dance-single:
     Heavy:
     Hard:
     1:
     0.001513,0.000066,0.003531,0.000000,0.000000,3.000000,2.000000,1.000000,0.000000,0.000000,0.000000,0.001513,0.000066,0.003531,0.000000,0.000000,3.000000,2.000000,1.000000,0.000000,0.000000,0.000000:
0110
1000
0000
0000
0000
0000
0000
0000
,
0000
0000
0000
0000
0000
0000
0000
0000
,
0000
0000
0000
0000
0000
0000
0000
0000
,
0000
0000
0000
0000
0000
0000
0000
0000
,
0000
0000
0000
0000
0000
0000
0000
0000
,
0000
0000
0000
0000
0000
0000
0000
0000
,
0000
0000
0000
0000
0000
0000
0000
0000
,
0000
0000
0000
0000
0000
0000
0000
0000
,
0000
0000
0000
0000
0000
0000
0000
0000
,
0000
0000
0000
0000
0000
0000
0000
0000
,
0000
0000
0000
0000
0000
0000
0000
0000
,
0000
0000
0000
0000
0000
0000
0000
0000
,
0000
0000
0000
0000
0000
0000
0000
0000
,
0000
0000
0000
0000
0000
0000
0000
0000
,
0000
0000
0000
0000
0000
0000
0000
0000
,
0000
0000
0000
0000
0000
0000
0000
0000
,
0000
0000
0000
0000
0000
0000
0000
0000
,
0000
0000
0000
0000
0000
0000
0000
0000
,
0000
0000
0000
0000
0000
0000
0000
0000
,
0000
0000
0000
0000
0000
0000
0000
0000
,
0000
0000
0000
0000
0000
0000
0000
0000
,
0000
0000
0000
0000
0000
0000
0000
0000
,
0000
0000
0000
0000
0000
0000
0000
0000
,
0000
0000
0000
0000
0000
0000
0000
0000
,
0000
0000
0000
0000
0000
0000
0000
0000
,
0000
0000
0000
0000
0000
0000
0000
0000
,
0000
0000
0000
0000
0000
0000
0000
0000
,
0000
0000
0000
0000
0000
0000
0000
0000
,
0000
0000
0000
0000
0000
0000
0000
0000
,
0000
0000
0000
0000
0000
0000
0000
0000
,
0000
0000
0000
0000
0000
0000
0000
0000
,
0000
0000
0000
0000
0000
0000
0000
0000
,
0000
0000
0000
0000
0000
0000
0000
0000
,
0000
0000
0000
0000
0000
0000
0000
0000
,
0000
0000
0000
0000
0000
0000
0000
0000
,
0000
0000
0000
0000
0000
0000
0000
0000
,
0000
0000
0000
0000
0000
0000
0000
0000
,
0000
0000
0000
0000
0000
0000
0000
0000
,
0000
0000
0000
0000
0000
0000
0000
0000
,
0000
0000
0000
0000
0000
0000
0000
0000
,
0000
0000
0000
0000
0000
0000
0000
0000
,
0000
0000
0000
0000
0000
0000
0000
0000
,
0000
0000
0000
0000
0000
0000
0000
0000
,
0000
0000
0000
0000
0000
0000
0000
0000
,
0000
0000
0000
0000
0000
0000
0000
0000
,
0000
0000
0000
0000
0000
0000
0000
0000
,
0000
0000
0000
0000
0000
0000
0000
0000
,
0000
0000
0000
0000
0000
0000
0000
0000
,
0000
0000
0000
0000
0000
0000
0000
0000
,
0000
0000
0000
0000
0000
0000
0000
0000
,
0000
0000
0000
0000
0000
0000
0000
0000
,
0000
0000
0000
0000
0000
0000
0000
0000
,
0000
0000
0000
0000
0000
0000
0000
0000
,
0000
0000
0000
0000
0000
0000
0000
0000
,
0000
0000
0000
0000
0000
0000
0000
0000
,
0000
0000
0000
0000
0000
0000
0000
0000
,
0000
0000
0000
0000
0000
0000
0000
0000
,
0000
0000
0000
0000
0000
0000
0000
0000
,
0000
0000
0000
0000
0000
0000
0000
0000
,
0000
0000
0000
0000
0000
0000
0000
0000
,
0000
0000
0000
0000
0000
0000
0000
0000
,
0000
0000
0000
0000
0000
0000
0000
0000
,
0000
0000
0000
0000
0000
0000
0000
0000
,
0000
0000
0000
0000
0000
0000
0000
0000
,
0000
0000
0000
0000
0000
0000
0000
0000
,
0000
0000
0000
0000
0000
0000
0000
0000
,
0000
0000
0000
0000
0000
0000
0000
0000
,
0000
0000
0000
0000
0000
0000
0000
0000
,
0000
0000
0000
0000
0000
0000
0000
0000
,
0000
0000
0000
0000
0000
0000
0000
0000
,
0000
0000
0000
0000
0000
0000
0000
0000
,
0000
0000
0000
0000
0000
0000
0000
0000
,
0000
0000
0000
0000
0000
0000
0000
0000
,
0000
0000
0000
0000
0000
0000
0000
0000
,
0000
0000
0000
0000
0000
0000
0000
0000
,
0000
0000
0000
0000
0000
0000
0000
0000
,
0000
0000
0000
0000
0000
0000
0000
0000
,
0000
0000
0000
0000
0000
0000
0000
0000
,
0000
0000
0000
0000
0000
0000
0000
0000
,
0000
0000
0000
0000
0000
0000
0000
0000
,
0000
0000
0000
0000
0000
0000
0000
0000
,
0000
0000
0000
0000
0000
0000
0000
0000
,
0000
0000
0000
0000
0000
0000
0000
0000
,
;
