#TITLE:Akeboshi x Polaris Mashup;
#SUBTITLE:;
#ARTIST:Demon Slayer and My Hero Academia;
#TITLETRANSLIT:;
#SUBTITLETRANSLIT:;
#ARTISTTRANSLIT:;
#GENRE:;
#CREDIT:Gorilla v1.1.3 (Dancing Monkeys v1.06);
#BANNER:;
#BACKGROUND:;
#LYRICSPATH:;
#CDTITLE:;
#MUSIC:Akeboshi x Polaris Mashup (Demon Slayer Season 2 & My Hero Academia).mp3;
#OFFSET:-0.576438;
#SAMPLESTART:32.168106;
#SAMPLELENGTH:12.000000;
#SELECTABLE:YES;
#BPMS:0.000000=164.649994
;
#STOPS:
;
#BGCHANGES:;
#KEYSOUNDS:;
#ATTACKS:;

//---------------dance-single - Basic----------------
#NOTES:
     dance-single:
     Basic:
     Easy:
     3:
     0.151060,0.242290,0.000000,0.058283,0.000000,127.000000,127.000000,0.000000,7.000000,0.000000,0.000000,0.151060,0.242290,0.000000,0.058283,0.000000,127.000000,127.000000,0.000000,7.000000,0.000000,0.000000:
// measure 0
0000
0000
0020
0000
,  // measure 1
0000
0000
0000
0000
,  // measure 2
0030
0000
0200
0000
,  // measure 3
0000
0000
0300
0000
,  // measure 4
1000
0000
0001
0001
,  // measure 5
0001
0000
1000
0000
,  // measure 6
0002
0000
0003
1000
,  // measure 7
1000
0000
0100
0010
,  // measure 8
1000
0001
0001
0001
,  // measure 9
0000
1000
0100
0000
,  // measure 10
0001
0000
0010
0000
,  // measure 11
0001
0000
0000
0100
,  // measure 12
0000
1000
0000
0100
,  // measure 13
0000
0001
0000
0100
,  // measure 14
0000
1000
0000
0100
,  // measure 15
0000
0001
0000
0100
,  // measure 16
0000
1000
0000
0001
,  // measure 17
0001
0000
0000
0100
,  // measure 18
0000
0001
0000
0100
,  // measure 19
0000
0000
0100
0000
,  // measure 20
1000
0000
0010
0000
,  // measure 21
0001
0000
0100
0000
,  // measure 22
1000
0000
0010
0000
,  // measure 23
1000
0000
0100
0000
,  // measure 24
0001
0000
0100
0000
,  // measure 25
0001
0000
0010
0000
,  // measure 26
1000
0000
0001
0000
,  // measure 27
0100
0000
0010
0000
,  // measure 28
1000
0000
0010
0000
,  // measure 29
0001
0000
0100
0000
,  // measure 30
0002
0000
0000
0000
,  // measure 31
0000
0000
0000
0000
,  // measure 32
0000
0003
0000
0100
,  // measure 33
0000
1000
0000
0100
,  // measure 34
0000
0100
0000
2000
,  // measure 35
0000
0000
0000
0000
,  // measure 36
0000
0000
0000
0000
,  // measure 37
0000
0000
3000
0000
,  // measure 38
0010
0000
0001
0000
,  // measure 39
0010
0000
0100
0000
,  // measure 40
1000
0000
0001
0000
,  // measure 41
0010
0000
0100
0000
,  // measure 42
0001
0000
0010
0000
,  // measure 43
1000
0000
0010
0000
,  // measure 44
0001
0000
1000
0000
,  // measure 45
0010
0000
1000
0000
,  // measure 46
1000
0000
0001
0000
,  // measure 47
0010
0000
0100
0000
,  // measure 48
1000
0000
0001
0000
,  // measure 49
1000
0000
0010
0000
,  // measure 50
0100
0000
0100
0000
,  // measure 51
0001
0000
0010
0000
,  // measure 52
1000
0000
0010
0000
,  // measure 53
1000
0000
0100
0000
,  // measure 54
1000
0000
0010
0000
,  // measure 55
0001
0000
1000
0000
,  // measure 56
0100
0000
0010
0000
,  // measure 57
1000
0000
0010
0000
,  // measure 58
0100
0000
0010
0000
,  // measure 59
1000
0000
0010
0000
,  // measure 60
0100
0000
1000
0000
,  // measure 61
0010
0000
0001
0000
,  // measure 62
1000
0000
0010
0000
,  // measure 63
0100
0000
2000
0000
,  // measure 64
0000
0000
0000
0000
,  // measure 65
0000
3000
0000
0010
,  // measure 66
0000
0001
0000
0010
,  // measure 67
0000
1000
0000
0010
,  // measure 68
0000
0100
0000
0010
,  // measure 69
0000
1000
0000
0010
,  // measure 70
0000
1000
0000
0010
,  // measure 71
0000
2000
0000
0000
,  // measure 72
0000
0000
0000
3000
;
