#VERSION:0.83;
#TITLE:Demon Slayer - Opening 4 ;
#SUBTITLE:;
#ARTIST:Demon Slayer;
#TITLETRANSLIT:;
#SUBTITLETRANSLIT:;
#ARTISTTRANSLIT:;
#GENRE:;
#ORIGIN:;
#CREDIT:Gorilla v1.1.3 (Dancing Monkeys v1.06);
#BANNER:;
#BACKGROUND:;
#PREVIEWVID:;
#JACKET:;
#CDIMAGE:;
#DISCIMAGE:;
#LYRICSPATH:;
#CDTITLE:;
#MUSIC:Demon Slayer - Opening 4 4K 60FPS Creditless.mp3;
#OFFSET:-1.562042;
#SAMPLESTART:38.258877;
#SAMPLELENGTH:12.000000;
#SELECTABLE:YES;
#BPMS:0.000=170.042;
#STOPS:;
#DELAYS:;
#WARPS:;
#TIMESIGNATURES:0.000=4=4;
#TICKCOUNTS:0.000=4;
#COMBOS:0.000=1;
#SPEEDS:0.000=1.000=0.000=0;
#SCROLLS:0.000=1.000;
#FAKES:;
#LABELS:0.000=Song Start;
#BGCHANGES:;
#KEYSOUNDS:;
#ATTACKS:
;

//---------------dance-single - Basic----------------
#NOTEDATA:;
#CHARTNAME:Basic;
#STEPSTYPE:dance-single;
#DESCRIPTION:Basic;
#CHARTSTYLE:;
#DIFFICULTY:Easy;
#METER:3;
#RADARVALUES:0.115162,0.128529,0.000000,0.082258,0.000000,98.000000,98.000000,0.000000,10.000000,0.000000,0.000000,0.000000,0.000000,0.000000,0.115162,0.128529,0.000000,0.082258,0.000000,98.000000,98.000000,0.000000,10.000000,0.000000,0.000000,0.000000,0.000000,0.000000;
#CREDIT:Basic;
#NOTES:
// measure 0
2000
0000
0000
0000
,  // measure 1
0000
0000
0000
0000
,  // measure 2
0000
0000
0000
0000
,  // measure 3
0000
0000
3000
0000
,  // measure 4
1000
0000
0100
0000
,  // measure 5
0001
0000
0010
0000
,  // measure 6
1000
0000
0010
0000
,  // measure 7
0001
0000
0010
0000
,  // measure 8
0001
0000
0010
0000
,  // measure 9
1000
0000
0010
0000
,  // measure 10
0001
0000
0100
0000
,  // measure 11
1000
0000
0010
0000
,  // measure 12
0100
0000
2000
0000
,  // measure 13
0000
0000
0000
0000
,  // measure 14
3000
0000
0010
0000
,  // measure 15
0002
0000
0003
0000
,  // measure 16
1000
0000
0010
0000
,  // measure 17
0001
0000
0100
0000
,  // measure 18
2000
0000
0000
0000
,  // measure 19
0000
3000
0000
0000
,  // measure 20
1000
0000
0100
0000
,  // measure 21
1000
0000
0001
0000
,  // measure 22
1000
0000
0010
0000
,  // measure 23
0001
0000
0010
0000
,  // measure 24
0001
0000
0010
0000
,  // measure 25
0001
0000
1000
0000
,  // measure 26
0001
0000
0010
0000
,  // measure 27
0200
0000
0000
0300
,  // measure 28
0002
0000
0000
0000
,  // measure 29
0000
0003
0000
0000
,  // measure 30
2000
0000
0000
0000
,  // measure 31
0000
0000
3000
0000
,  // measure 32
1000
0000
0001
0000
,  // measure 33
0001
0000
1000
0000
,  // measure 34
0002
0000
0000
0000
,  // measure 35
0000
0000
0003
0000
,  // measure 36
0001
0000
0100
0000
,  // measure 37
0001
0000
0100
0000
,  // measure 38
1000
0000
0001
0000
,  // measure 39
1000
0000
0100
0000
,  // measure 40
0001
0000
0010
0000
,  // measure 41
1000
0000
0100
0000
,  // measure 42
0001
0000
0010
0000
,  // measure 43
1000
0000
1000
0000
,  // measure 44
1000
0000
0010
0000
,  // measure 45
0001
0000
1000
0000
,  // measure 46
0001
0000
0010
0000
,  // measure 47
1000
0000
0001
0000
,  // measure 48
0001
0000
1000
0000
,  // measure 49
0010
0000
0001
0000
,  // measure 50
0010
0000
0100
0000
,  // measure 51
0001
0000
0010
0000
,  // measure 52
0001
0000
2000
0000
,  // measure 53
0000
0000
3000
0000
,  // measure 54
0010
0000
0002
0000
,  // measure 55
0000
0003
0000
0000
,  // measure 56
1000
0000
0100
0000
,  // measure 57
0001
0000
0100
0000
,  // measure 58
1000
0000
0001
0000
,  // measure 59
1000
0000
0100
0000
,  // measure 60
0001
0000
0100
0000
,  // measure 61
1000
0000
1000
0000
,  // measure 62
0010
0000
1000
0000
;
