#TITLE:Demon Slayer - Opening 3 ;
#SUBTITLE:;
#ARTIST:Demon Slayer;
#TITLETRANSLIT:;
#SUBTITLETRANSLIT:;
#ARTISTTRANSLIT:;
#GENRE:;
#CREDIT:Gorilla v1.1.3 (Dancing Monkeys v1.06);
#BANNER:;
#BACKGROUND:;
#LYRICSPATH:;
#CDTITLE:;
#MUSIC:Demon Slayer - Opening 3 4K 60FPS Creditless.mp3;
#OFFSET:-0.031791;
#SAMPLESTART:35.122494;
#SAMPLELENGTH:12.000000;
#SELECTABLE:YES;
#BPMS:0.000000=170.985001
;
#STOPS:
;
#BGCHANGES:;
#KEYSOUNDS:;
#ATTACKS:;

//---------------dance-single - Basic----------------
#NOTES:
     dance-single:
     Basic:
     Easy:
     3:
     0.135298,0.128166,0.000000,0.000000,0.000000,115.000000,115.000000,0.000000,0.000000,0.000000,0.000000,0.135298,0.128166,0.000000,0.000000,0.000000,115.000000,115.000000,0.000000,0.000000,0.000000,0.000000:
// measure 0
0000
0000
0000
0000
,  // measure 1
0000
0000
0000
0000
,  // measure 2
0010
0000
0000
1000
,  // measure 3
0000
0000
0000
0001
,  // measure 4
0000
0000
0010
0000
,  // measure 5
0000
0000
0000
1000
,  // measure 6
0000
0000
0000
0001
,  // measure 7
0000
0000
0000
1000
,  // measure 8
0000
0000
0010
0000
,  // measure 9
1000
0000
0001
0000
,  // measure 10
0001
0000
1000
0000
,  // measure 11
1000
0000
0010
0000
,  // measure 12
0001
0000
0100
0000
,  // measure 13
1000
0000
0001
0000
,  // measure 14
0001
0000
0100
0000
,  // measure 15
1000
0000
1000
0000
,  // measure 16
0001
0000
0001
0000
,  // measure 17
0100
0000
1000
0000
,  // measure 18
0001
0000
1000
0000
,  // measure 19
0010
0000
1000
0000
,  // measure 20
1000
0000
0001
0000
,  // measure 21
0010
0000
1000
0000
,  // measure 22
1000
0000
0001
0000
,  // measure 23
1000
0000
0100
0000
,  // measure 24
0001
0000
0010
0000
,  // measure 25
0100
0000
1000
0000
,  // measure 26
0010
0000
0001
0000
,  // measure 27
0100
0000
0001
0000
,  // measure 28
1000
0000
0010
0000
,  // measure 29
0100
0000
0010
0000
,  // measure 30
0001
0000
0100
0000
,  // measure 31
0001
0000
0010
0000
,  // measure 32
0001
0000
0100
0000
,  // measure 33
0001
0000
0100
0000
,  // measure 34
0010
0000
0001
0000
,  // measure 35
1000
0000
0010
0000
,  // measure 36
1000
0000
0100
0000
,  // measure 37
0001
0000
0010
0000
,  // measure 38
0001
0000
0100
0000
,  // measure 39
0001
0000
0010
0000
,  // measure 40
0000
1000
0000
0010
,  // measure 41
0000
0100
0000
1000
,  // measure 42
0000
0010
0000
0001
,  // measure 43
0000
0100
0000
1000
,  // measure 44
0000
0010
0000
0001
,  // measure 45
0000
0010
0000
0010
,  // measure 46
0000
1000
0000
1000
,  // measure 47
0000
0010
0000
0010
,  // measure 48
0000
1000
0000
1000
,  // measure 49
0000
0100
0000
0001
,  // measure 50
0000
1000
0000
0010
,  // measure 51
0000
0100
0000
1000
,  // measure 52
0000
0010
0000
1000
,  // measure 53
0000
0100
0000
0010
,  // measure 54
0000
0001
0000
1000
,  // measure 55
0000
0010
0000
1000
,  // measure 56
0000
0010
0000
0100
,  // measure 57
0000
1000
0000
0001
,  // measure 58
0000
0010
0000
0010
,  // measure 59
0000
1000
0000
0001
,  // measure 60
0000
1000
0000
0100
,  // measure 61
0000
0010
0000
1000
,  // measure 62
0000
0010
0000
0000
;
