#TITLE:deli ice spice (sped up);
#SUBTITLE:;
#ARTIST:Dancing Monkeys Project;
#TITLETRANSLIT:;
#SUBTITLETRANSLIT:;
#ARTISTTRANSLIT:;
#GENRE:;
#CREDIT:Gorilla v1.1.3 (Dancing Monkeys v1.06);
#BANNER:61auxpMDJAL.png;
#BACKGROUND:b50097348c26a5ffe8e546c5122cb81d.png;
#LYRICSPATH:;
#CDTITLE:;
#MUSIC:deli ice spice (sped up).mp3;
#OFFSET:-0.228437;
#SAMPLESTART:36.853436;
#SAMPLELENGTH:12.000000;
#SELECTABLE:YES;
#BPMS:0.000000=163.822998
;
#STOPS:
;
#BGCHANGES:;
#KEYSOUNDS:;
#ATTACKS:;

//---------------dance-single - Basic----------------
#NOTES:
     dance-single:
     Basic:
     Easy:
     6:
     0.380893,0.334434,0.018452,0.018452,0.000000,289.000000,287.000000,2.000000,2.000000,0.000000,0.000000,0.380893,0.334434,0.018452,0.018452,0.000000,289.000000,287.000000,2.000000,2.000000,0.000000,0.000000:
0001
0000
0100
0010
,
1000
0001
0100
0010
,
0001
1000
0100
0010
,
0001
1000
0010
0100
,
1000
0001
0100
0010
,
0001
1000
0100
0010
,
1000
0001
0010
0100
,
1000
0001
0010
0100
,
1000
0100
0010
0001
,
1000
0010
0100
0001
,
1000
0010
0100
1000
,
0001
0100
0010
1000
,
0001
0100
0010
1000
,
0001
0100
0010
1000
,
0001
0010
0010
1000
,
0001
0010
1000
0010
,
0001
1000
0100
0010
,
1000
0001
0100
0010
,
1000
0001
0100
0010
,
0001
0010
0001
0100
,
1000
0001
0100
0010
,
1000
0001
0010
0100
,
1000
0001
0100
0010
,
0001
2002
0000
3003
,
1000
0100
0010
0001
,
1000
0100
0010
0001
,
1000
0100
0010
0001
,
1000
0100
0010
1000
,
0001
0100
0010
0001
,
1000
0010
0100
0001
,
1000
0100
0010
0001
,
1000
0100
1000
0001
,
1000
0010
1001
0000
,
0100
0001
0100
1000
,
0010
1000
0010
0100
,
0001
1000
0100
0010
,
1000
0001
0010
0100
,
1000
0001
0010
0100
,
0001
0100
1000
0001
,
1000
0001
0100
0010
,
1000
0100
0010
0001
,
1000
0010
0100
1000
,
0001
0010
0100
1000
,
0001
0100
0010
1000
,
0010
0010
0100
0001
,
1000
0010
0100
0001
,
1000
1000
0010
0001
,
1000
0100
1000
0001
,
1000
0001
0100
0010
,
1000
0001
0100
0010
,
0001
1000
0010
0100
,
0001
0010
1000
0001
,
0100
0001
0100
0010
,
1000
0001
0010
0100
,
1000
0001
0010
0100
,
0001
1000
0100
0010
,
1000
0100
0010
0001
,
0010
1000
0010
1000
,
0100
0001
0100
0001
,
1000
0100
0010
0001
,
0001
0100
0010
1000
,
0001
0010
0100
1000
,
0001
1000
0001
1000
,
0001
1000
0010
0100
,
1000
0010
0001
0010
,
1000
0001
0100
0010
,
1000
0010
1000
0001
,
1000
0001
0100
0010
,
1000
0010
1000
0001
,
1000
0001
0100
0010
,
1000
0001
0100
0010
,
1000
0010
0001
0010
,
1000
0010
0001
0000
;

//---------------dance-single - Basic----------------
#NOTES:
     dance-single:
     :
     Beginner:
     6:
     0.191105,0.164911,0.000000,0.000000,0.000000,145.000000,145.000000,0.000000,0.000000,0.000000,0.000000,0.191105,0.164911,0.000000,0.000000,0.000000,145.000000,145.000000,0.000000,0.000000,0.000000,0.000000:
// measure 0
0001
0000
0100
0000
,  // measure 1
1000
0000
0010
0000
,  // measure 2
0001
0000
0010
0000
,  // measure 3
0001
0000
0100
0000
,  // measure 4
0010
0000
0100
0000
,  // measure 5
0001
0000
0010
0000
,  // measure 6
0100
0000
0010
0000
,  // measure 7
1000
0000
0010
0000
,  // measure 8
0100
0000
1000
0000
,  // measure 9
0010
0000
0100
0000
,  // measure 10
1000
0000
0100
0000
,  // measure 11
0001
0100
0000
0010
,  // measure 12
0000
0010
0000
1000
,  // measure 13
0000
0100
0000
0010
,  // measure 14
0000
0010
0000
0100
,  // measure 15
0000
0010
0000
0100
,  // measure 16
0000
0001
0000
1000
,  // measure 17
0000
0010
0000
0100
,  // measure 18
0000
0010
0000
1000
,  // measure 19
0000
0010
0000
1000
,  // measure 20
0000
0001
0000
0010
,  // measure 21
0000
0001
0000
0100
,  // measure 22
0000
0001
0000
0010
,  // measure 23
0000
1000
0000
0010
,  // measure 24
0000
0001
0000
0010
,  // measure 25
0000
1000
0000
1000
,  // measure 26
0000
0100
0000
0001
,  // measure 27
0000
0010
0000
0100
,  // measure 28
0000
1000
0000
0010
,  // measure 29
0000
1000
0000
0010
,  // measure 30
0000
0001
0000
1000
,  // measure 31
0000
0010
0000
0001
,  // measure 32
0000
0010
0000
0100
,  // measure 33
0000
0010
0000
1000
,  // measure 34
0000
0100
0000
0001
,  // measure 35
0000
1000
0000
0010
,  // measure 36
0000
0001
0000
0010
,  // measure 37
0000
0001
0000
0010
,  // measure 38
0000
0100
0000
0010
,  // measure 39
0000
0001
0000
0010
,  // measure 40
0000
0100
0000
1000
,  // measure 41
0000
0010
0000
0100
,  // measure 42
0000
0010
0000
1000
,  // measure 43
0000
0100
0000
0001
,  // measure 44
0000
0010
0000
1000
,  // measure 45
0000
0010
0000
0100
,  // measure 46
0000
0010
0000
1000
,  // measure 47
0000
0010
0000
0100
,  // measure 48
0000
0001
0000
0010
,  // measure 49
0000
0001
0000
0100
,  // measure 50
0000
1000
0000
0100
,  // measure 51
0000
0010
0000
0010
,  // measure 52
0000
0001
0000
0010
,  // measure 53
0000
0001
0000
0100
,  // measure 54
0000
0001
0000
0100
,  // measure 55
0000
1000
0000
0010
,  // measure 56
1000
0000
0010
0000
,  // measure 57
0001
0000
0010
0000
,  // measure 58
1000
0000
0010
0000
,  // measure 59
1000
0000
0010
0000
,  // measure 60
0001
0000
0100
0000
,  // measure 61
0001
0000
0100
0000
,  // measure 62
0001
0000
0010
0000
,  // measure 63
0100
0000
1000
0000
,  // measure 64
0001
0000
0010
0000
,  // measure 65
0001
0000
0100
0000
,  // measure 66
0001
0000
1000
0000
,  // measure 67
0010
0000
0001
0000
,  // measure 68
0100
0000
1000
0000
,  // measure 69
0001
0000
0010
0000
,  // measure 70
0001
0000
1000
0000
,  // measure 71
0001
0000
0100
0000
;
