#VERSION:0.83;
#TITLE:Dazzey Dukes ;
#SUBTITLE:;
#ARTIST:Duice;
#TITLETRANSLIT:;
#SUBTITLETRANSLIT:;
#ARTISTTRANSLIT:;
#GENRE:;
#ORIGIN:;
#CREDIT:Gorilla v1.1.3 (Dancing Monkeys v1.06);
#BANNER:;
#BACKGROUND:;
#PREVIEWVID:;
#JACKET:;
#CDIMAGE:;
#DISCIMAGE:;
#LYRICSPATH:;
#CDTITLE:;
#MUSIC:Dazzey Dukes - Duice.mp3;
#OFFSET:-0.687234;
#SAMPLESTART:45.442333;
#SAMPLELENGTH:12.000000;
#SELECTABLE:YES;
#BPMS:0.000=134.000;
#STOPS:;
#DELAYS:;
#WARPS:;
#TIMESIGNATURES:0.000=4=4;
#TICKCOUNTS:0.000=4;
#COMBOS:0.000=1;
#SPEEDS:0.000=1.000=0.000=0;
#SCROLLS:0.000=1.000;
#FAKES:;
#LABELS:0.000=Song Start;
#BGCHANGES:;
#KEYSOUNDS:;
#ATTACKS:
;

//---------------dance-single - Basic----------------
#NOTEDATA:;
#CHARTNAME:Basic;
#STEPSTYPE:dance-single;
#DESCRIPTION:Basic;
#CHARTSTYLE:;
#DIFFICULTY:Easy;
#METER:3;
#RADARVALUES:0.108462,0.115047,0.000000,0.015495,0.000000,98.000000,98.000000,0.000000,2.000000,0.000000,0.000000,0.000000,0.000000,0.000000,0.108462,0.115047,0.000000,0.015495,0.000000,98.000000,98.000000,0.000000,2.000000,0.000000,0.000000,0.000000,0.000000,0.000000;
#CREDIT:Basic;
#NOTES:
// measure 0
0000
1000
0000
0000
,  // measure 1
0001
0001
0001
0000
,  // measure 2
1000
0000
0001
0000
,  // measure 3
1000
0000
0010
0000
,  // measure 4
1000
0000
0001
0000
,  // measure 5
1000
0000
0010
0000
,  // measure 6
1000
0000
0001
0000
,  // measure 7
1000
0000
0010
0000
,  // measure 8
1000
0000
0010
0000
,  // measure 9
0001
0000
0100
0000
,  // measure 10
1000
0000
0010
0000
,  // measure 11
1000
0000
0010
0000
,  // measure 12
1000
0000
0001
0000
,  // measure 13
0010
0000
0010
0000
,  // measure 14
1000
0000
0100
0000
,  // measure 15
0010
0000
0010
0000
,  // measure 16
1000
0000
0010
0000
,  // measure 17
0001
0000
0010
0000
,  // measure 18
0100
0000
1000
0000
,  // measure 19
0001
0000
0010
0000
,  // measure 20
1000
0000
0010
0000
,  // measure 21
0001
0000
0010
0000
,  // measure 22
1000
0000
0010
0000
,  // measure 23
0001
0000
0010
0000
,  // measure 24
1000
0000
0010
0000
,  // measure 25
0001
0000
0010
0000
,  // measure 26
1000
0000
0001
0000
,  // measure 27
1000
0000
0010
0000
,  // measure 28
1000
0000
0001
0000
,  // measure 29
0010
0000
0010
0000
,  // measure 30
1000
0000
0100
0000
,  // measure 31
0010
0000
0010
0000
,  // measure 32
1000
0000
0001
0000
,  // measure 33
0010
0000
0010
0000
,  // measure 34
1000
0000
0001
0000
,  // measure 35
0010
0000
0010
0000
,  // measure 36
1000
0000
0001
0000
,  // measure 37
0010
0000
0010
0000
,  // measure 38
1000
0000
0001
0000
,  // measure 39
0010
0000
0010
0000
,  // measure 40
1000
0000
1000
0000
,  // measure 41
1000
0000
0010
0000
,  // measure 42
1000
0000
0010
0000
,  // measure 43
0100
0000
0010
0000
,  // measure 44
1000
0000
0001
0000
,  // measure 45
0010
0000
0010
0000
,  // measure 46
1000
0000
0001
0000
,  // measure 47
0010
0000
0010
0000
,  // measure 48
2000
0000
0000
3000
,  // measure 49
2000
0000
3000
0000
;
