#VERSION:0.83;
#TITLE:Danny Phantom Theme Song (with lyrics);
#SUBTITLE:;
#ARTIST:Dancing Monkeys Project;
#TITLETRANSLIT:;
#SUBTITLETRANSLIT:;
#ARTISTTRANSLIT:;
#GENRE:;
#ORIGIN:;
#CREDIT:Gorilla v1.1.3 (Dancing Monkeys v1.06);
#BANNER:images.png;
#BACKGROUND:55dfe95512993eadeb91c5e504f17970.png;
#PREVIEWVID:;
#JACKET:;
#CDIMAGE:;
#DISCIMAGE:;
#LYRICSPATH:;
#CDTITLE:;
#MUSIC:Danny Phantom Theme Song (with lyrics).mp3;
#OFFSET:-0.305146;
#SAMPLESTART:0.305146;
#SAMPLELENGTH:12.000000;
#SELECTABLE:YES;
#BPMS:0.000=120.040;
#STOPS:;
#DELAYS:;
#WARPS:;
#TIMESIGNATURES:0.000=4=4;
#TICKCOUNTS:0.000=4;
#COMBOS:0.000=1;
#SPEEDS:0.000=1.000=0.000=0;
#SCROLLS:0.000=1.000;
#FAKES:;
#LABELS:0.000=Song Start;
#BGCHANGES:;
#KEYSOUNDS:;
#ATTACKS:
;

//---------------dance-single - Basic----------------
#NOTEDATA:;
#CHARTNAME:Basic;
#STEPSTYPE:dance-single;
#DESCRIPTION:Basic;
#CHARTSTYLE:;
#DIFFICULTY:Easy;
#METER:3;
#RADARVALUES:0.254774,0.212673,0.000000,0.035668,0.000000,100.000000,100.000000,0.000000,2.000000,0.000000,0.000000,0.000000,0.000000,0.000000,0.254774,0.212673,0.000000,0.035668,0.000000,100.000000,100.000000,0.000000,2.000000,0.000000,0.000000,0.000000,0.000000,0.000000;
#CREDIT:Basic;
#NOTES:
1000
0010
1000
0001
,
0001
0100
0010
0000
,
0001
1000
0001
0001
,
0001
0100
0010
0010
,
1000
0001
0001
0100
,
0001
0010
0010
0010
,
1000
0001
0001
0100
,
0100
1000
0100
1000
,
1000
0001
0001
0100
,
1000
0010
0001
0001
,
1000
0001
0001
0100
,
1000
0010
0001
0001
,
0001
1000
1000
1000
,
0001
0001
0001
1000
,
1000
0010
0010
1000
,
1000
0010
1000
1000
,
0010
0010
0010
1000
,
1000
0001
0001
0100
,
0001
1000
1000
1000
,
1000
0001
0001
0100
,
0001
1000
1000
0100
,
1000
0001
0001
0010
,
0020
0000
0030
1000
,
0001
1000
1000
0010
,
0001
1000
1000
0010
,
1000
0010
0002
0000
,
0000
0000
0003
0000
;
