#TITLE:MASHLE;
#SUBTITLE:;
#ARTIST:Dancing Monkeys Project;
#TITLETRANSLIT:;
#SUBTITLETRANSLIT:;
#ARTISTTRANSLIT:;
#GENRE:;
#CREDIT:Gorilla v1.1.3 (Dancing Monkeys v1.06);
#BANNER:hq720.png;
#BACKGROUND:images.png;
#LYRICSPATH:;
#CDTITLE:;
#MUSIC:Otonoke x Bling-Bang-Bang-Born (AMV) Mashup of Dandadan, Mashle_ Magic and Muscles 2 [Creepy Nuts].mp3;
#OFFSET:-0.427208;
#SAMPLESTART:38.643875;
#SAMPLELENGTH:12.000000;
#SELECTABLE:YES;
#BPMS:0.000000=159.000000
;
#STOPS:
;
#BGCHANGES:0.000=New Project.avi=1.000=0=0=0=StretchNoLoop====,
99999=-nosongbg-=1.000=0=0=0 // don't automatically add -songbackground-
;
#KEYSOUNDS:;
#ATTACKS:;

//---------------dance-single - Basic----------------
#NOTES:
     dance-single:
     Basic:
     Easy:
     3:
     0.142549,0.161190,0.000000,0.025586,0.000000,195.000000,195.000000,0.000000,5.000000,0.000000,0.000000,0.142549,0.161190,0.000000,0.025586,0.000000,195.000000,195.000000,0.000000,5.000000,0.000000,0.000000:
1000
0000
0000
0000
,
1000
1000
1000
1000
,
0001
0001
0001
0001
,
0010
0010
0010
0010
,
1000
1000
1000
0100
,
0100
0100
0100
0010
,
0010
0010
0010
0002
,
0000
0000
0003
1000
,
0000
0000
0000
0001
,
0001
0001
0001
0001
,
0001
0001
1000
1000
,
1000
1000
1000
1000
,
1000
1000
0010
0010
,
0010
0010
0010
0010
,
0010
0010
1000
1000
,
1000
1000
1000
0000
,
0010
0000
0001
0000
,
0001
0000
0010
0000
,
1000
0000
1000
0000
,
0010
0000
1000
0000
,
1000
0000
0100
0000
,
0001
0000
0001
0000
,
1000
0000
0010
0000
,
1000
0000
0001
0000
,
0010
0000
0001
0000
,
1000
0000
0100
0000
,
1000
0000
0100
0000
,
1000
0000
0100
0000
,
0001
0000
0100
0000
,
1000
0000
0100
0000
,
0001
0000
0100
0000
,
1000
0000
0000
1000
,
1000
1000
1000
1000
,
1000
1000
1000
0001
,
0001
0001
0001
0001
,
0001
0001
0010
0010
,
0010
0010
1000
1000
,
1000
1000
0010
0010
,
0010
0010
0001
0000
,
0000
0000
0100
0100
,
0001
0001
1000
1000
,
0010
0010
2000
0000
,
0000
0000
3000
1000
,
1000
0100
0100
0000
,
0001
0000
0000
0001
,
0001
0001
0100
0100
,
1000
0000
0000
0001
,
0001
0010
0010
1000
,
1000
0010
0010
0010
,
0002
0000
0000
0000
,
0003
0000
1000
0000
,
0100
0100
0000
0001
,
0000
0000
0100
0100
,
0001
0001
0000
0001
,
0000
0010
0000
0001
,
0000
0100
0000
0010
,
0000
0001
0000
0100
,
0000
1000
0000
0010
,
0000
1000
0000
0100
,
0000
0010
0000
0001
,
0000
0010
0000
1000
,
0000
0002
0000
0003
,
0000
1000
0000
0010
,
0010
0010
0010
0001
,
0001
0001
1000
1000
,
1000
1000
1000
1000
,
1000
1000
0100
0100
,
0100
0100
0100
0100
,
0100
0100
0001
0001
,
0001
0002
0000
0000
,
0003
0000
0000
0000
;

//---------------dance-single - Basic----------------
#NOTES:
     dance-single:
     :
     Beginner:
     3:
     0.076026,0.074838,0.000000,0.000000,0.000000,104.000000,104.000000,0.000000,0.000000,0.000000,0.000000,0.076026,0.074838,0.000000,0.000000,0.000000,104.000000,104.000000,0.000000,0.000000,0.000000,0.000000:
0000
0000
0000
0000
,
1000
0000
0100
0000
,
0001
0000
0100
0000
,
0001
0000
0100
0000
,
0001
0000
0010
0000
,
1000
0000
0100
0000
,
0001
0000
0100
0000
,
1000
0000
0010
0000
,
1000
0000
0000
0000
,
0001
0000
0100
0000
,
1000
0000
0100
0000
,
0001
0000
0010
0000
,
0001
0000
0100
0000
,
1000
0000
0000
0000
,
0001
0000
0000
0000
,
1000
0000
0100
0000
,
0001
0000
0100
0000
,
0001
0000
0100
0000
,
0001
0000
0100
0000
,
1000
0000
0100
0000
,
0001
0000
0010
0000
,
0001
0000
0100
0000
,
0000
1000
0000
0000
,
0001
0000
0100
0000
,
0001
0000
0100
0000
,
0001
0000
0100
0000
,
1000
0000
0100
0000
,
1000
0000
0100
0000
,
0001
0000
0100
0000
,
1000
0000
0100
0000
,
0001
0000
0100
0000
,
1000
0000
0100
0000
,
1000
0000
0010
0000
,
0010
0000
1000
0000
,
0001
0000
0001
0000
,
1000
0000
0010
0000
,
0000
0000
0000
0000
,
1000
0000
1000
0000
,
0001
0000
0000
0010
,
0000
0100
0000
0100
,
0000
0000
0000
0000
,
1000
0000
0100
0000
,
0001
0000
0100
0000
,
1000
0000
0100
0000
,
0001
0000
0100
0000
,
0100
0000
0100
0000
,
1000
0000
0010
0000
,
0001
0000
0010
0000
,
1000
0000
0000
0000
,
0010
0000
0100
0000
,
1000
0000
0100
0000
,
0001
0000
0001
0000
,
1000
0000
0100
0000
,
0001
0000
0100
0000
,
1000
0000
0010
0000
,
0001
0000
0001
0000
,
1000
0000
0100
0000
,
0000
0000
0000
0000
,
0000
0000
1000
0000
;
