#VERSION:0.83;
#TITLE:Bad Bunny - DAKITI (Letra) ft. Jhayco;
#SUBTITLE:;
#ARTIST:Dancing Monkeys Project;
#TITLETRANSLIT:;
#SUBTITLETRANSLIT:;
#ARTISTTRANSLIT:;
#GENRE:;
#ORIGIN:;
#CREDIT:Gorilla v1.1.3 (Dancing Monkeys v1.06);
#BANNER:maxresdefault.png;
#BACKGROUND:artworks-8zWVcHy7b3Wy4hRq-1un1bg-t500x500.png;
#PREVIEWVID:;
#JACKET:;
#CDIMAGE:;
#DISCIMAGE:;
#LYRICSPATH:;
#CDTITLE:;
#MUSIC:Bad Bunny - DAKITI (Letra) ft. Jhayco.mp3;
#OFFSET:-2.589819;
#SAMPLESTART:57.131775;
#SAMPLELENGTH:12.000000;
#SELECTABLE:YES;
#BPMS:0.000=110.007;
#STOPS:;
#DELAYS:;
#WARPS:;
#TIMESIGNATURES:0.000=4=4;
#TICKCOUNTS:0.000=4;
#COMBOS:0.000=1;
#SPEEDS:0.000=1.000=0.000=0;
#SCROLLS:0.000=1.000;
#FAKES:;
#LABELS:0.000=Song Start;
#BGCHANGES:;
#KEYSOUNDS:;
#ATTACKS:
;

//---------------dance-single - Basic----------------
#NOTEDATA:;
#CHARTNAME:Basic;
#STEPSTYPE:dance-single;
#DESCRIPTION:Basic;
#CHARTSTYLE:;
#DIFFICULTY:Easy;
#METER:2;
#RADARVALUES:0.116495,0.156697,0.000000,0.039974,0.000000,102.000000,102.000000,0.000000,5.000000,0.000000,0.000000,0.000000,0.000000,0.000000,0.116495,0.156697,0.000000,0.039974,0.000000,102.000000,102.000000,0.000000,5.000000,0.000000,0.000000,0.000000,0.000000,0.000000;
#CREDIT:Basic;
#NOTES:
// measure 0
0000
1000
0000
0000
,  // measure 1
0001
0000
0000
0010
,  // measure 2
0010
0000
0000
1000
,  // measure 3
0000
1000
0000
0000
,  // measure 4
0010
0000
0000
1000
,  // measure 5
0000
0000
0000
1000
,  // measure 6
0000
0000
0001
0000
,  // measure 7
0001
0001
0000
0000
,  // measure 8
0010
0010
0000
1000
,  // measure 9
1000
0000
0000
0000
,  // measure 10
0001
0000
0000
0000
,  // measure 11
1000
0000
0010
0000
,  // measure 12
0001
0000
0100
0000
,  // measure 13
0010
0000
1000
0000
,  // measure 14
1000
0000
0000
0000
,  // measure 15
0010
0000
0100
0000
,  // measure 16
0001
1000
0000
0010
,  // measure 17
0000
0001
0000
0010
,  // measure 18
0000
0001
0000
0010
,  // measure 19
0000
0001
0000
0100
,  // measure 20
0000
0001
0000
0100
,  // measure 21
0000
1000
0000
0010
,  // measure 22
0000
0001
0000
0100
,  // measure 23
0200
0000
0000
0300
,  // measure 24
0002
0000
0000
0003
,  // measure 25
0200
0000
0000
0300
,  // measure 26
2000
0000
3000
0000
,  // measure 27
1000
1000
0000
0000
,  // measure 28
0001
0010
0010
0000
,  // measure 29
1000
1000
1000
0000
,  // measure 30
0002
0000
0003
0000
,  // measure 31
1000
0000
0010
0000
,  // measure 32
1000
0000
0100
0000
,  // measure 33
0010
0000
1000
0000
,  // measure 34
0001
0000
0010
0000
,  // measure 35
1000
0000
0100
0000
,  // measure 36
1000
0000
0010
0000
,  // measure 37
0001
0000
0010
0000
,  // measure 38
1000
0000
0100
0000
,  // measure 39
0010
0000
0100
0000
,  // measure 40
1000
0000
0100
0000
,  // measure 41
0001
0000
0010
0000
,  // measure 42
0001
0000
0100
0000
,  // measure 43
0001
1000
0000
0010
,  // measure 44
0000
0001
0000
0100
,  // measure 45
0000
0001
0000
0100
,  // measure 46
0000
0010
0000
1000
,  // measure 47
1000
0000
0000
0001
,  // measure 48
0000
0000
1000
0000
,  // measure 49
1000
0000
0000
0010
,  // measure 50
0000
1000
0000
0000
,  // measure 51
0001
0001
0000
0010
,  // measure 52
0000
0000
0100
0000
,  // measure 53
1000
0000
0000
0000
,  // measure 54
1000
0000
0010
0000
,  // measure 55
0010
0000
0000
0000
,  // measure 56
1000
0000
0000
0000
;
