#VERSION:0.83;
#TITLE:Daddy's Home;
#SUBTITLE:;
#ARTIST:Usher;
#TITLETRANSLIT:;
#SUBTITLETRANSLIT:;
#ARTISTTRANSLIT:;
#GENRE:;
#ORIGIN:;
#CREDIT:Gorilla v1.1.3 (Dancing Monkeys v1.06);
#BANNER:19be27ec6dc4c90b8516d413cfe451ce.png;
#BACKGROUND:maxresdefault.png;
#PREVIEWVID:;
#JACKET:;
#CDIMAGE:;
#DISCIMAGE:;
#LYRICSPATH:;
#CDTITLE:;
#MUSIC:onlymp3.to - hey daddy daddy s home usher sped up -YkxsIpXEwak-192k-1711638521.mp3;
#OFFSET:-0.164000;
#SAMPLESTART:48.241085;
#SAMPLELENGTH:12.000000;
#SELECTABLE:YES;
#BPMS:0.000=124.800;
#STOPS:;
#DELAYS:;
#WARPS:;
#TIMESIGNATURES:0.000=4=4;
#TICKCOUNTS:0.000=4;
#COMBOS:0.000=1;
#SPEEDS:0.000=1.000=0.000=0;
#SCROLLS:0.000=1.100;
#FAKES:;
#LABELS:0.000=Song Start;
#BGCHANGES:;
#KEYSOUNDS:;
#ATTACKS:
;

//---------------dance-single - Basic----------------
#NOTEDATA:;
#CHARTNAME:Basic;
#STEPSTYPE:dance-single;
#DESCRIPTION:Basic;
#CHARTSTYLE:;
#DIFFICULTY:Easy;
#METER:5;
#RADARVALUES:0.258351,0.232092,0.000000,0.046821,0.000000,309.000000,309.000000,0.000000,8.000000,0.000000,0.000000,0.000000,0.000000,0.000000,0.258351,0.232092,0.000000,0.046821,0.000000,309.000000,309.000000,0.000000,8.000000,0.000000,0.000000,0.000000,0.000000,0.000000;
#CREDIT:Basic;
#NOTES:
0000
0000
0000
0010
0000
0000
0000
0000
,
0000
0000
0000
1000
0000
0000
0000
0000
,
0000
0000
0000
0001
0000
0000
0000
0000
,
0000
0000
0000
1000
0000
0000
0000
0000
,
0000
0000
0000
0010
0000
1000
0000
0100
,
0000
0001
0000
0100
0000
0010
0000
0001
,
0000
1000
0000
0100
0000
0010
0000
1000
,
0000
1000
0000
0001
0000
0100
0000
0001
,
0000
1000
0000
0001
0000
0100
0000
1000
,
0000
0001
0000
0100
0000
0010
0000
1000
,
0000
0001
0000
0100
0000
0010
0000
0001
,
0000
1000
0000
0001
0000
0100
0000
0001
,
0000
1000
0000
0001
0000
0100
0000
1000
,
0000
0001
0000
0100
0000
0010
0000
1000
,
0000
0001
0000
0010
0000
0100
0000
0100
,
0000
1000
0000
1000
0000
0100
0000
0100
,
0000
1000
1000
0100
,
1000
0001
0100
0010
,
1000
0001
0100
0010
,
0010
1000
0001
0100
,
0001
1000
1000
0100
,
1000
0001
0100
0010
,
0001
1000
0001
0100
,
0100
2000
0000
0000
,
3000
0000
0000
0001
0000
0100
0000
1000
,
0000
0001
0000
0010
0000
0100
0000
0100
,
0000
0001
0000
1000
0000
0010
0000
0100
,
0000
0001
0000
0010
0000
1000
0000
0100
,
0000
0001
0000
2000
0000
0000
0000
0000
,
3000
0020
0000
0000
,
0030
2000
0000
0000
,
3000
0020
0000
0030
,
0000
0000
0100
0010
,
1000
0001
0010
0100
,
1000
0100
0010
0001
,
0001
1000
1000
0100
,
1000
0001
0100
0010
,
0001
1000
0100
0010
,
0010
1000
0001
0100
,
0001
1000
0001
0100
,
1000
0001
0100
0010
,
1000
0001
0100
0010
,
0100
1000
0001
0100
,
0001
1000
0010
0100
,
1000
0001
0100
0010
,
0001
0010
0100
0010
,
1000
1000
0001
0100
,
0001
1000
0001
0100
,
1000
0001
0100
0010
,
0001
1000
0100
0010
,
0100
1000
1000
0010
,
0010
0000
0000
0000
0000
0200
0000
0000
,
0000
0000
0300
0001
0000
0001
0000
0100
,
0000
1000
0000
0001
0000
0100
0000
0010
,
0000
0010
1000
0100
,
0001
0010
0100
0010
,
1000
0001
0100
0010
,
0001
1000
0010
0100
,
0010
1000
0001
0100
,
0001
1000
0010
0100
,
1000
0001
0100
0010
,
0001
1000
0010
0100
,
1000
1000
0100
0100
,
0200
0000
0000
0300
,
0000
0100
0000
0001
0000
0100
0000
0010
,
0000
0001
0000
1000
0000
0010
0000
0010
,
0000
0001
0000
1000
0000
1000
0000
0100
,
0000
0001
0000
0100
0000
0100
0000
1000
,
0000
0001
0000
0001
0000
0010
0000
0010
,
0000
1000
0000
1000
0000
0000
0010
0000
,
0010
1000
1000
0100
,
0100
1000
1000
0010
,
0010
0001
0001
0100
,
0100
0001
0010
0100
,
0000
1000
0000
0001
0000
0100
0000
0001
,
0000
0010
0000
1000
0000
0100
0000
1000
,
0000
0001
0000
0100
0000
0010
0000
0001
,
0000
1000
0000
0010
0000
0100
0000
0010
,
0000
0001
0000
1000
0000
0100
0000
0010
,
0000
0100
0000
0002
0000
0000
0000
0000
,
0000
0000
0003
0000
0000
0100
0000
0000
,
1000
0001
0100
0010
,
0000
0100
0000
0001
0000
1000
0000
0100
,
0000
0010
0000
0001
0000
0100
0000
0010
,
0000
0001
0000
0001
0000
0100
0000
1000
,
0000
0010
0000
0100
0000
0100
0000
0000
,
1000
0001
0010
0100
,
1000
0001
0010
0100
,
0000
0010
0000
0000
0000
0000
0000
0000
;

//---------------dance-single - Basic----------------
#NOTEDATA:;
#CHARTNAME:;
#STEPSTYPE:dance-single;
#DESCRIPTION:Basic;
#CHARTSTYLE:;
#DIFFICULTY:Beginner;
#METER:5;
#RADARVALUES:0.135446,0.128940,0.000000,0.011705,0.000000,162.000000,162.000000,0.000000,2.000000,0.000000,0.000000,0.000000,0.000000,0.000000,0.135446,0.128940,0.000000,0.011705,0.000000,162.000000,162.000000,0.000000,2.000000,0.000000,0.000000,0.000000,0.000000,0.000000;
#CREDIT:;
#NOTES:
// measure 0
0000
0000
0000
0010
0000
0000
0000
0000
,  // measure 1
0000
0000
0000
1000
0000
0000
0000
0000
,  // measure 2
0000
0000
0000
0001
0000
0000
0000
0000
,  // measure 3
0000
0000
0000
1000
0000
0000
0000
0000
,  // measure 4
0000
0000
0000
0010
0000
0000
0000
0100
,  // measure 5
0000
0000
0000
0100
0000
0000
0000
0001
,  // measure 6
0000
0000
0000
0100
0000
0000
0000
1000
,  // measure 7
0000
0000
0000
0001
0000
0000
0000
0001
,  // measure 8
0000
0000
0000
0001
0000
0000
0000
1000
,  // measure 9
0000
0000
0000
0100
0000
0000
0000
1000
,  // measure 10
0000
0000
0000
0100
0000
0000
0000
0010
,  // measure 11
0000
0000
0000
0001
0000
0000
0000
0001
,  // measure 12
0000
0000
0000
0001
0000
0000
0000
1000
,  // measure 13
0000
0000
0000
0100
0000
0000
0000
1000
,  // measure 14
0000
0000
0000
0010
0000
0000
0000
0100
,  // measure 15
0000
0000
0000
1000
0000
0000
0000
0100
,  // measure 16
0000
1000
0000
0100
,  // measure 17
0000
0001
0000
0010
,  // measure 18
0000
0001
0000
0010
,  // measure 19
0000
1000
0000
0100
,  // measure 20
0000
1000
0000
0100
,  // measure 21
0000
0001
0000
0010
,  // measure 22
0000
1000
0000
0100
,  // measure 23
0000
2000
0000
0000
,  // measure 24
3000
0000
0000
0001
0000
0000
0000
1000
,  // measure 25
0000
0000
0000
0010
0000
0000
0000
0100
,  // measure 26
0000
0000
0000
1000
0000
0000
0000
0100
,  // measure 27
0000
0000
0000
0010
0000
0000
0000
0100
,  // measure 28
0000
0000
0000
1000
0000
0000
0000
0000
,  // measure 29
0000
0010
0000
0000
,  // measure 30
0000
1000
0000
0000
,  // measure 31
0000
0010
0000
0000
,  // measure 32
0000
0000
0100
0000
,  // measure 33
1000
0000
0010
0000
,  // measure 34
1000
0000
0010
0000
,  // measure 35
0001
0000
1000
0000
,  // measure 36
1000
0000
0100
0000
,  // measure 37
0001
0000
0100
0000
,  // measure 38
0010
0000
1000
0000
,  // measure 39
0010
0000
0001
0000
,  // measure 40
1000
0000
0100
0000
,  // measure 41
1000
0000
0100
0000
,  // measure 42
0100
0000
0001
0000
,  // measure 43
0001
0000
0010
0000
,  // measure 44
1000
0000
0100
0000
,  // measure 45
0001
0000
0100
0000
,  // measure 46
1000
0000
0010
0000
,  // measure 47
1000
0000
0001
0000
,  // measure 48
1000
0000
0100
0000
,  // measure 49
0001
0000
0100
0000
,  // measure 50
0100
0000
1000
0000
,  // measure 51
0010
0000
0000
0000
0000
0200
0000
0000
,  // measure 52
0000
0000
0300
0000
0000
0001
0000
0000
,  // measure 53
0000
1000
0000
0000
0000
0100
0000
0000
,  // measure 54
0000
0010
0000
0100
,  // measure 55
0000
0001
0000
0010
,  // measure 56
0000
0001
0000
0010
,  // measure 57
0000
1000
0000
0100
,  // measure 58
0000
1000
0000
0100
,  // measure 59
0000
1000
0000
0100
,  // measure 60
0000
0001
0000
0010
,  // measure 61
0000
1000
0000
0100
,  // measure 62
0000
1000
0000
0100
,  // measure 63
0000
0001
0000
0000
,  // measure 64
0000
0000
0000
0001
0000
0000
0000
0010
,  // measure 65
0000
0000
0000
1000
0000
0000
0000
0010
,  // measure 66
0000
0000
0000
0000
0000
1000
0000
0000
,  // measure 67
0000
0001
0000
0000
0000
0100
0000
0000
,  // measure 68
0000
0000
0000
0001
0000
0000
0000
0010
,  // measure 69
0000
0000
0000
1000
0000
0000
0000
0000
,  // measure 70
0010
0000
1000
0000
,  // measure 71
0100
0000
1000
0000
,  // measure 72
0010
0000
0001
0000
,  // measure 73
0100
0000
0010
0000
,  // measure 74
0000
1000
0000
0000
0000
0100
0000
0000
,  // measure 75
0000
0010
0000
0000
0000
0100
0000
0000
,  // measure 76
0000
0001
0000
0000
0000
0010
0000
0000
,  // measure 77
0000
1000
0000
0000
0000
0100
0000
0000
,  // measure 78
0000
0001
0000
0000
0000
0100
0000
0000
,  // measure 79
0000
0100
0000
0001
0000
0000
0000
0000
,  // measure 80
0000
0000
0000
0000
0000
0100
0000
0000
,  // measure 81
0000
0001
0000
0010
,  // measure 82
0000
0100
0000
0000
0000
1000
0000
0000
,  // measure 83
0000
0010
0000
0000
0000
0100
0000
0000
,  // measure 84
0000
0001
0000
0000
0000
0100
0000
0000
,  // measure 85
0000
0010
0000
0000
0000
0100
0000
0000
,  // measure 86
1000
0000
0010
0000
,  // measure 87
1000
0000
0010
0000
,  // measure 88
0000
0100
0000
0000
0000
0000
0000
0000
;
