#VERSION:0.83;
#TITLE:Daddy's Gone;
#SUBTITLE:;
#ARTIST:American Dad\; Steve & Roger;
#TITLETRANSLIT:;
#SUBTITLETRANSLIT:;
#ARTISTTRANSLIT:;
#GENRE:;
#ORIGIN:;
#CREDIT:Gorilla v1.1.3 (Dancing Monkeys v1.06);
#BANNER:;
#BACKGROUND:;
#PREVIEWVID:;
#JACKET:;
#CDIMAGE:;
#DISCIMAGE:;
#LYRICSPATH:;
#CDTITLE:;
#MUSIC:American Dad - Daddy's Gone FULL Video.mp3;
#OFFSET:-2.143515;
#SAMPLESTART:63.173717;
#SAMPLELENGTH:12.000000;
#SELECTABLE:YES;
#BPMS:0.000=114.042;
#STOPS:11.000=2.104;
#DELAYS:;
#WARPS:;
#TIMESIGNATURES:0.000=4=4;
#TICKCOUNTS:0.000=4;
#COMBOS:0.000=1;
#SPEEDS:0.000=1.000=0.000=0;
#SCROLLS:0.000=1.000;
#FAKES:;
#LABELS:0.000=Song Start;
#BGCHANGES:;
#KEYSOUNDS:;
#ATTACKS:
;

//---------------dance-single - Basic----------------
#NOTEDATA:;
#CHARTNAME:Basic;
#STEPSTYPE:dance-single;
#DESCRIPTION:Basic;
#CHARTSTYLE:;
#DIFFICULTY:Easy;
#METER:1;
#RADARVALUES:0.099337,0.127856,0.000000,0.022431,0.000000,62.000000,62.000000,0.000000,2.000000,0.000000,0.000000,0.000000,0.000000,0.000000,0.099337,0.127856,0.000000,0.022431,0.000000,62.000000,62.000000,0.000000,2.000000,0.000000,0.000000,0.000000,0.000000,0.000000;
#CREDIT:Basic;
#NOTES:
// measure 0
1000
0000
0000
0000
,  // measure 1
0001
0000
0000
0000
,  // measure 2
0000
0000
0000
0000
,  // measure 3
0000
0000
0000
0000
,  // measure 4
0000
0010
0000
0000
,  // measure 5
0000
1000
0000
0000
,  // measure 6
0000
0001
0000
1000
,  // measure 7
0000
0010
0000
0000
,  // measure 8
1000
0000
1000
0000
,  // measure 9
0001
0000
0001
0000
,  // measure 10
1000
0000
0100
0000
,  // measure 11
1000
0000
0010
0000
,  // measure 12
1000
0000
0001
0000
,  // measure 13
1000
0000
0010
0000
,  // measure 14
1000
0000
0010
0000
,  // measure 15
0001
0000
0100
0000
,  // measure 16
0001
0000
0010
0000
,  // measure 17
1000
0000
0100
0000
,  // measure 18
0001
0000
0010
0000
,  // measure 19
1000
0000
0100
0000
,  // measure 20
0001
0000
0001
0000
,  // measure 21
1000
1000
1000
0000
,  // measure 22
1000
0000
0001
0000
,  // measure 23
1000
0000
0001
0000
,  // measure 24
1000
0000
0000
0000
,  // measure 25
1000
0000
0000
0002
,  // measure 26
0000
0000
0003
0000
,  // measure 27
1000
0000
0001
0000
,  // measure 28
0010
0000
1000
0000
,  // measure 29
0010
0000
0100
0000
,  // measure 30
1000
0000
0001
0000
,  // measure 31
0010
0000
1000
0000
,  // measure 32
0010
0000
0010
0000
,  // measure 33
1000
0000
0001
0000
,  // measure 34
0000
0000
0001
0000
,  // measure 35
0000
0000
1000
0000
,  // measure 36
0010
0000
1000
0000
,  // measure 37
0002
0000
0000
0000
,  // measure 38
0003
0000
0000
0000
;
