#TITLE:Cyberpunk_ Edgerunners\; Ready For Tomorrow;
#SUBTITLE:;
#ARTIST:Cyberpunk;
#TITLETRANSLIT:;
#SUBTITLETRANSLIT:;
#ARTISTTRANSLIT:;
#GENRE:;
#CREDIT:Gorilla v1.1.3 (Dancing Monkeys v1.06);
#BANNER:;
#BACKGROUND:;
#LYRICSPATH:;
#CDTITLE:;
#MUSIC:Cyberpunk_ Edgerunners Music_ Who's Ready For Tomorrow - Rat Boy & IBDY.mp3;
#OFFSET:-0.533764;
#SAMPLESTART:50.966148;
#SAMPLELENGTH:12.000000;
#SELECTABLE:YES;
#BPMS:0.000000=138.006577
;
#STOPS:
;
#BGCHANGES:;
#KEYSOUNDS:;
#ATTACKS:;

//---------------dance-single - Basic----------------
#NOTES:
     dance-single:
     Basic:
     Easy:
     2:
     0.118878,0.119567,0.000000,0.042894,0.000000,97.000000,97.000000,0.000000,5.000000,0.000000,0.000000,0.118878,0.119567,0.000000,0.042894,0.000000,97.000000,97.000000,0.000000,5.000000,0.000000,0.000000:
// measure 0
0000
1000
0000
0000
,  // measure 1
0001
0001
0000
0000
,  // measure 2
0000
1000
0000
0000
,  // measure 3
0000
0001
0000
0000
,  // measure 4
0010
0000
1000
0000
,  // measure 5
0010
0000
1000
0000
,  // measure 6
0001
0000
0010
0000
,  // measure 7
0001
0000
0100
0000
,  // measure 8
0001
0000
0010
0000
,  // measure 9
0001
0000
0100
0000
,  // measure 10
0001
0000
0010
0000
,  // measure 11
0001
0000
0100
0000
,  // measure 12
0001
0000
0010
0000
,  // measure 13
1000
0000
1000
0000
,  // measure 14
0001
0000
0010
0000
,  // measure 15
1000
0000
1000
0000
,  // measure 16
2000
0000
0000
0000
,  // measure 17
0000
3000
1000
0000
,  // measure 18
0001
0000
0010
0000
,  // measure 19
0001
0000
0010
0000
,  // measure 20
0001
0000
0010
0000
,  // measure 21
0001
0000
0100
0000
,  // measure 22
1000
0000
0100
0000
,  // measure 23
0001
0000
0010
0000
,  // measure 24
1000
0000
0010
0000
,  // measure 25
1000
0000
0100
0000
,  // measure 26
0001
0000
0010
0000
,  // measure 27
1000
0000
0010
0000
,  // measure 28
0001
0000
0010
0000
,  // measure 29
0001
0000
0010
0000
,  // measure 30
0001
0000
0100
0000
,  // measure 31
0001
0000
0100
0000
,  // measure 32
1000
0000
0010
0000
,  // measure 33
1000
0000
1000
0000
,  // measure 34
0010
0000
1000
0000
,  // measure 35
0010
0000
0001
0000
,  // measure 36
0100
0000
1000
0000
,  // measure 37
0010
0000
0001
0000
,  // measure 38
1000
0000
0010
0000
,  // measure 39
1000
0000
0010
0000
,  // measure 40
2000
0000
0000
0000
,  // measure 41
0000
0000
3000
0002
,  // measure 42
0000
0000
0000
0000
,  // measure 43
0003
0000
0000
0000
,  // measure 44
1000
0000
0000
0000
,  // measure 45
0010
0000
1000
0000
,  // measure 46
0010
0000
0000
0002
,  // measure 47
0000
0000
0003
1000
,  // measure 48
0000
0010
0000
0001
,  // measure 49
0000
0100
0000
0010
,  // measure 50
0000
0001
0000
0010
,  // measure 51
0000
1000
0000
0001
,  // measure 52
0000
0100
0000
1000
,  // measure 53
0000
0001
0000
0010
,  // measure 54
0000
0100
0000
0200
,  // measure 55
0000
0000
0000
0300
;
