#TITLE:Crash Twinsanity Soundtrack - Rock-Slide Rumble;
#SUBTITLE:;
#ARTIST:Crash Bandicoot Twinsanity;
#TITLETRANSLIT:;
#SUBTITLETRANSLIT:;
#ARTISTTRANSLIT:;
#GENRE:;
#CREDIT:Gorilla v1.1.3 (Dancing Monkeys v1.06);
#BANNER:;
#BACKGROUND:;
#LYRICSPATH:;
#CDTITLE:;
#MUSIC:Crash Twinsanity Soundtrack - Rock-Slide Rumble.mp3;
#OFFSET:-0.146757;
#SAMPLESTART:30.135420;
#SAMPLELENGTH:12.000000;
#SELECTABLE:YES;
#BPMS:0.000000=200.076004
;
#STOPS:351.000000=1.200000
;
#BGCHANGES:;
#KEYSOUNDS:;
#ATTACKS:;

//---------------dance-single - Basic----------------
#NOTES:
     dance-single:
     Basic:
     Easy:
     3:
     0.132425,0.114974,0.000000,0.000000,0.000000,129.000000,129.000000,0.000000,0.000000,0.000000,0.000000,0.132425,0.114974,0.000000,0.000000,0.000000,129.000000,129.000000,0.000000,0.000000,0.000000,0.000000:
// measure 0
0001
0000
1000
0000
,  // measure 1
1000
0000
0100
0000
,  // measure 2
0001
0000
0010
0000
,  // measure 3
1000
0000
0001
0000
,  // measure 4
0001
0000
0010
0000
,  // measure 5
1000
0000
0010
0000
,  // measure 6
0001
0000
0010
0000
,  // measure 7
1000
0000
0010
0000
,  // measure 8
0100
0000
1000
0000
,  // measure 9
0100
0000
0001
0000
,  // measure 10
0010
0000
1000
0000
,  // measure 11
1000
0000
1000
0000
,  // measure 12
0001
0000
0010
0000
,  // measure 13
1000
0000
0001
0000
,  // measure 14
1000
0000
0100
0000
,  // measure 15
1000
0000
0010
0000
,  // measure 16
0001
0000
0010
0000
,  // measure 17
1000
0000
0001
0000
,  // measure 18
0010
0000
1000
0000
,  // measure 19
0010
0000
1000
0000
,  // measure 20
0010
0000
0100
0000
,  // measure 21
0001
0000
0010
0000
,  // measure 22
1000
0000
0100
0000
,  // measure 23
0001
0000
1000
0000
,  // measure 24
0010
0000
1000
0000
,  // measure 25
0010
0000
0100
0000
,  // measure 26
0001
0000
1000
0000
,  // measure 27
0010
0000
0100
0000
,  // measure 28
0001
0000
1000
0000
,  // measure 29
0010
0000
1000
0000
,  // measure 30
0010
0000
0100
0000
,  // measure 31
1000
0000
0010
0000
,  // measure 32
0001
0000
1000
0000
,  // measure 33
0010
0000
0001
0000
,  // measure 34
0001
0000
0100
0000
,  // measure 35
1000
0000
0010
0000
,  // measure 36
0001
0000
0010
0000
,  // measure 37
1000
0000
0010
0000
,  // measure 38
1000
0000
0001
0000
,  // measure 39
1000
0000
0010
0000
,  // measure 40
1000
0000
0010
0000
,  // measure 41
1000
0000
0010
0000
,  // measure 42
1000
0000
0010
0000
,  // measure 43
1000
0000
0010
0000
,  // measure 44
0100
0000
1000
0000
,  // measure 45
0010
0000
1000
0000
,  // measure 46
0010
0000
0001
0000
,  // measure 47
1000
0000
0001
0000
,  // measure 48
0010
0000
0100
0000
,  // measure 49
0001
0000
0100
0000
,  // measure 50
0001
0000
1000
0000
,  // measure 51
0001
0000
0100
0000
,  // measure 52
1000
0000
0010
0000
,  // measure 53
1000
0000
0010
0000
,  // measure 54
1000
0000
0010
0000
,  // measure 55
0100
0000
0010
0000
,  // measure 56
0001
0000
1000
0000
,  // measure 57
1000
0000
0001
0000
,  // measure 58
1000
0000
0100
0000
,  // measure 59
1000
0000
1000
0000
,  // measure 60
0001
0000
0010
0000
,  // measure 61
0001
0000
0010
0000
,  // measure 62
1000
0000
0010
0000
,  // measure 63
0001
0000
0010
0000
,  // measure 64
1000
0000
0000
0000
;
