#TITLE:Crash Bandicoot - Warp Room ;
#SUBTITLE:;
#ARTIST:Crash Bandicoot Twinsanity;
#TITLETRANSLIT:;
#SUBTITLETRANSLIT:;
#ARTISTTRANSLIT:;
#GENRE:;
#CREDIT:Gorilla v1.1.3 (Dancing Monkeys v1.06);
#BANNER:;
#BACKGROUND:;
#LYRICSPATH:;
#CDTITLE:;
#MUSIC:Crash Bandicoot - Warp Room [Super Smash Bros. Custom Remix].mp3;
#OFFSET:-0.564694;
#SAMPLESTART:41.943378;
#SAMPLELENGTH:12.000000;
#SELECTABLE:YES;
#BPMS:0.000000=150.000000
;
#STOPS:
;
#BGCHANGES:;
#KEYSOUNDS:;
#ATTACKS:;

//---------------dance-single - Basic----------------
#NOTES:
     dance-single:
     Basic:
     Easy:
     3:
     0.151365,0.149540,0.000000,0.000000,0.000000,141.000000,141.000000,0.000000,0.000000,0.000000,0.000000,0.151365,0.149540,0.000000,0.000000,0.000000,141.000000,141.000000,0.000000,0.000000,0.000000,0.000000:
// measure 0
1000
0001
0100
0000
,  // measure 1
1000
0001
0010
0000
,  // measure 2
0001
1000
0010
0000
,  // measure 3
0000
0010
0000
0000
,  // measure 4
1000
0001
0100
0000
,  // measure 5
0001
1000
0100
0000
,  // measure 6
0001
1000
0100
0000
,  // measure 7
0010
0000
0000
0100
,  // measure 8
1000
0001
0100
0000
,  // measure 9
1000
0001
0100
0000
,  // measure 10
1000
0001
0100
0000
,  // measure 11
0000
0001
1000
0100
,  // measure 12
1000
0001
0100
0000
,  // measure 13
1000
0100
0010
0000
,  // measure 14
1000
0100
0010
0000
,  // measure 15
0000
0001
1000
0100
,  // measure 16
0000
1000
0010
0000
,  // measure 17
0000
0000
1000
0100
,  // measure 18
0000
1000
0010
0000
,  // measure 19
0000
0001
0001
0010
,  // measure 20
0000
1000
0010
0000
,  // measure 21
0001
0000
1000
0100
,  // measure 22
0000
1000
0010
0000
,  // measure 23
0010
0000
1000
1000
,  // measure 24
0000
0001
0100
0000
,  // measure 25
0001
1000
0100
0000
,  // measure 26
0001
1000
0010
0000
,  // measure 27
0001
0001
1000
0100
,  // measure 28
1000
0001
0100
0000
,  // measure 29
1000
0001
0010
0000
,  // measure 30
0001
1000
0010
0000
,  // measure 31
0001
0001
1000
0100
,  // measure 32
0000
0001
0010
0000
,  // measure 33
0001
0001
0100
0000
,  // measure 34
0001
0001
0010
0000
,  // measure 35
0001
0001
1000
0100
,  // measure 36
0001
0010
0001
0000
,  // measure 37
0001
0001
0100
0001
,  // measure 38
0000
0001
0010
0000
,  // measure 39
1000
0001
0010
0001
,  // measure 40
0000
0001
0010
0000
,  // measure 41
0001
0001
0100
0010
,  // measure 42
0000
0001
0010
0000
,  // measure 43
1000
0000
0001
0001
,  // measure 44
0000
0001
0010
0000
,  // measure 45
1000
0001
0100
0010
,  // measure 46
0000
0001
0010
0000
,  // measure 47
0100
0000
1000
0100
,  // measure 48
0000
1000
0010
0000
,  // measure 49
0001
0000
0001
1000
;
