#VERSION:0.83;
#TITLE:Crash Twinsanity Soundtrack - The Evil Twins;
#SUBTITLE:;
#ARTIST:Dancing Monkeys Project;
#TITLETRANSLIT:;
#SUBTITLETRANSLIT:;
#ARTISTTRANSLIT:;
#GENRE:;
#ORIGIN:;
#CREDIT:Gorilla v1.1.3 (Dancing Monkeys v1.06);
#BANNER:maxresdefault.png;
#BACKGROUND:images.png;
#PREVIEWVID:;
#JACKET:;
#CDIMAGE:;
#DISCIMAGE:;
#LYRICSPATH:;
#CDTITLE:;
#MUSIC:Crash Twinsanity Soundtrack - The Evil Twins.mp3;
#OFFSET:-0.133197;
#SAMPLESTART:34.607121;
#SAMPLELENGTH:12.000000;
#SELECTABLE:YES;
#BPMS:0.000=174.045;
#STOPS:;
#DELAYS:;
#WARPS:;
#TIMESIGNATURES:0.000=4=4;
#TICKCOUNTS:0.000=4;
#COMBOS:0.000=1;
#SPEEDS:0.000=1.000=0.000=0;
#SCROLLS:0.000=1.000;
#FAKES:;
#LABELS:0.000=Song Start;
#BGCHANGES:;
#KEYSOUNDS:;
#ATTACKS:
;

//---------------dance-single - Basic----------------
#NOTEDATA:;
#CHARTNAME:Basic;
#STEPSTYPE:dance-single;
#DESCRIPTION:Basic;
#CHARTSTYLE:;
#DIFFICULTY:Easy;
#METER:3;
#RADARVALUES:0.266730,0.210050,0.000000,0.000000,0.000000,269.000000,269.000000,0.000000,0.000000,0.000000,0.000000,0.000000,0.000000,0.000000,0.266730,0.210050,0.000000,0.000000,0.000000,269.000000,269.000000,0.000000,0.000000,0.000000,0.000000,0.000000,0.000000,0.000000;
#CREDIT:Basic;
#NOTES:
0100
1000
1000
0100
,
0010
0001
0010
0100
,
0010
0001
1000
0010
,
0001
1000
0010
0100
,
0001
0100
0010
0001
,
1000
0010
0100
0100
,
0001
1000
0010
0100
,
1000
0010
0100
1000
,
0001
0010
0100
0001
,
0010
1000
0100
0001
,
1000
0010
0100
1000
,
0010
0100
0001
0010
,
1000
0100
0100
0001
,
0010
1000
0010
0100
,
1000
0001
0010
1000
,
0010
1000
0010
0100
,
1000
0001
0100
0010
,
0010
1000
1000
0010
,
0001
0001
0010
1000
,
0001
1000
0100
0010
,
1000
0001
1000
0100
,
0010
1000
0010
0100
,
1000
0001
0100
0010
,
0001
1000
0010
0010
,
0001
0010
0100
1000
,
0010
1000
0100
0010
,
0001
1000
0010
0100
,
1000
0010
0001
0010
,
1000
0100
0100
0001
,
0010
1000
0010
0100
,
1000
0001
0100
0010
,
0100
1000
0010
0010
,
0001
0000
0100
0010
,
0001
1000
0001
0010
,
0001
0100
0010
1000
,
0001
0010
0100
0010
,
1000
0100
1000
0010
,
1000
0100
0010
1000
,
0001
0100
0010
0001
,
1000
0010
0100
0010
,
1000
0100
0010
0001
,
1000
0010
0100
0100
,
0001
0010
1000
1000
,
0001
0010
1000
0100
,
1000
0010
0100
0001
,
1000
0010
0100
0100
,
1000
1000
0010
0010
,
1000
1000
0100
0100
,
0001
0001
0100
0100
,
0001
0001
0010
0010
,
0100
1000
1000
0100
,
1000
0010
1000
0100
,
1000
0100
0010
0100
,
0001
1000
0010
0100
,
0001
1000
0010
0100
,
0001
0100
0010
1000
,
0001
0100
0001
0010
,
0001
0010
0100
0010
,
0001
1000
0010
1000
,
1000
0001
0001
1000
,
0001
1000
0010
0100
,
0001
0100
0010
0010
,
0001
1000
0010
1000
,
1000
0001
0010
0010
,
0001
0100
0001
0001
,
1000
0100
0001
0100
,
0100
0001
1000
0100
,
1000
0010
0000
0000
;

//---------------dance-single - Standard----------------
#NOTEDATA:;
#CHARTNAME:Standard;
#STEPSTYPE:dance-single;
#DESCRIPTION:Standard;
#CHARTSTYLE:;
#DIFFICULTY:Medium;
#METER:2;
#RADARVALUES:0.171540,0.283190,0.041646,0.000000,0.000000,173.000000,167.000000,6.000000,0.000000,0.000000,0.000000,0.000000,0.000000,0.000000,0.171540,0.283190,0.041646,0.000000,0.000000,173.000000,167.000000,6.000000,0.000000,0.000000,0.000000,0.000000,0.000000,0.000000;
#CREDIT:Standard;
#NOTES:
0000
0000
0001
0000
0000
0000
0100
0000
,
0000
0000
1000
0000
0000
0000
0010
0000
,
0000
0000
0001
0000
0000
0000
0010
0000
,
0000
0000
0001
0000
0000
0000
0100
0000
,
1000
0000
0000
0000
0001
0000
0000
0000
,
0000
0000
0000
0000
1000
0000
0000
0000
,
1000
0000
0000
0000
0001
0000
0000
0000
,
0000
0000
0000
0000
1000
0000
0000
0000
,
0000
0000
0000
0000
0001
0000
0000
0000
,
0000
0000
0000
0000
0000
0000
0001
0000
,
0000
0000
0000
0000
1000
0000
0000
0000
,
0000
0000
0000
0000
1000
0000
0000
0000
,
1000
0000
0001
0000
0000
0000
0000
0000
,
0000
0000
0000
0000
0001
0000
0000
0000
,
1000
0000
0001
0000
0000
0000
0000
0000
,
0000
0000
0000
0000
0001
0000
0000
0000
,
1000
0000
0000
0000
0110
0000
0000
0000
,
0000
0000
1000
0000
0000
0000
0100
0000
,
1000
0000
0000
0000
0000
0000
0010
0000
,
0001
0000
0000
0000
0100
0000
0000
0000
,
1000
0000
0001
0000
0000
0000
0000
0000
,
0000
0000
0000
0000
0001
0000
0000
0000
,
1000
0000
0001
0000
0000
0000
0000
0000
,
0000
0000
0000
0000
0001
0000
0000
0000
,
1000
0000
0000
0000
0001
0000
0000
0000
,
0000
0000
1000
0000
0000
0000
0100
0000
,
0000
0000
0000
0000
0001
0000
0000
0000
,
0000
0000
0000
0000
1000
0000
0000
0000
,
1000
0000
0001
0000
0000
0000
0000
0000
,
0000
0000
0000
0000
0001
0000
0000
0000
,
1000
0000
0001
0000
0000
0000
0000
0000
,
0000
0000
0000
0000
0001
0000
0000
0000
,
1000
0000
0000
0000
0001
0000
0000
0000
,
0000
0000
1000
0000
0000
0000
0100
0000
,
1000
0000
0000
0000
0000
0000
0010
0000
,
1000
0000
0000
0000
0001
0000
0000
0000
,
1000
0000
0000
0000
0000
0000
0000
0000
,
0000
0000
0000
0000
0001
0000
0000
0000
,
0000
0000
0000
0000
1000
0000
0000
0000
,
1000
0000
0000
0000
0000
0000
0000
0000
,
0001
0000
0000
0000
0000
0000
0000
0000
,
0000
0000
0000
0000
1000
0000
0000
0000
,
0000
0000
0000
0000
1000
0000
0000
0000
,
0000
0000
0000
0000
0001
0000
0000
0000
,
1000
0000
0000
0000
0000
0000
0000
0000
,
0000
0000
0000
0000
1000
0000
0000
0000
,
0000
0000
0000
0000
0001
0000
0000
0000
,
0000
0000
0000
0000
1000
0000
0000
0000
,
0000
0000
0000
0000
0001
0000
0000
0000
,
0000
0000
0000
0000
1000
0000
0000
0000
,
0000
0000
1000
0000
1000
0000
0010
0000
,
0001
0000
0000
0000
0000
0000
1000
0000
,
1000
0000
0000
0000
0100
0000
0000
0000
,
1000
0000
0000
0000
0100
0000
0000
0000
,
0001
0000
0000
0000
0100
0000
0000
0000
,
1000
0000
0000
0000
0100
0000
0000
0000
,
1000
0000
0000
0000
1010
0000
0000
0000
,
1000
0000
0000
0000
0100
0000
0000
0000
,
0001
0000
0000
0000
0100
0000
0000
0000
,
0001
0000
0000
0000
0010
0000
0000
0000
,
0001
0000
0000
0000
0100
0000
0000
0000
,
1000
0000
0000
0000
0100
0000
0000
0000
,
0001
0000
0000
0000
0100
0000
0000
0000
,
0001
0000
0000
0000
0010
0000
0000
0000
,
1000
0000
0000
0000
1010
0000
0000
0000
,
1000
0000
0000
0000
1010
0000
0000
0000
,
0000
0000
1000
0000
0001
0000
1000
0000
,
1000
0000
0010
0000
0000
0000
0000
0000
,
0000
0000
0001
0000
0000
0000
0010
0000
,
1000
0000
0001
0000
0000
0000
0000
0000
,
0001
0000
0000
0000
0000
0000
0100
0000
,
1000
0000
0001
0000
0000
0000
0000
0000
,
0001
0000
0000
0000
0000
0000
0100
0000
,
1000
0000
0001
0000
0000
0000
0000
0000
,
1000
0000
1000
0000
0000
0000
0000
0000
,
0000
0000
0001
0000
0000
0000
0100
0000
,
1001
0000
0000
0000
0011
0000
0001
0000
,
0001
0000
0000
0000
0000
0000
0100
0000
,
0000
0000
1000
0000
0001
0000
1000
0000
,
1000
0000
1000
0000
0000
0000
0000
0000
,
0001
0000
0000
0000
0000
0000
0100
0000
,
1000
0000
0001
0000
0000
0000
0000
0000
,
1000
0000
1000
0000
0000
0000
0000
0000
,
0000
0000
0001
0000
0000
0000
0100
0000
,
1000
0000
0000
0000
0000
0000
0000
0000
,
0000
0000
1000
0000
0100
0000
0000
0000
,
1000
0000
0000
0000
0000
0000
0000
0000
,
0001
0000
0000
0000
0000
0000
0000
0000
,
1000
0000
0000
0000
0000
0000
0000
0000
,
0000
0000
1000
0000
0100
0000
0000
0000
,
1000
0000
0000
0000
0000
0000
0000
0000
,
0001
0000
0000
0000
0000
0000
0000
0000
,
1000
0000
0000
0000
0000
0000
0000
0000
,
0000
0000
1000
0000
0100
0000
0000
0000
,
1000
0000
0000
0000
0000
0000
0000
0000
,
0001
0000
0000
0000
0000
0000
0000
0000
,
1000
0000
0000
0000
0000
0000
0000
0000
,
0000
0000
1000
0000
0100
0000
0000
0000
,
1000
0000
0000
0000
0000
0000
0000
0000
,
0001
0000
0000
0000
0000
0000
0000
0000
,
1000
0000
0000
0000
0000
0000
0000
0000
,
0000
0000
0000
0000
1000
0000
0000
0000
,
0001
0000
0000
0000
0000
0000
0000
0000
,
;

//---------------dance-single - Heavy----------------
#NOTEDATA:;
#CHARTNAME:Heavy;
#STEPSTYPE:dance-single;
#DESCRIPTION:Heavy;
#CHARTSTYLE:;
#DIFFICULTY:Hard;
#METER:2;
#RADARVALUES:0.171540,0.283190,0.041646,0.000000,0.000000,173.000000,167.000000,6.000000,0.000000,0.000000,0.000000,0.000000,0.000000,0.000000,0.171540,0.283190,0.041646,0.000000,0.000000,173.000000,167.000000,6.000000,0.000000,0.000000,0.000000,0.000000,0.000000,0.000000;
#CREDIT:Heavy;
#NOTES:
0000
0000
1000
0000
0000
0000
0010
0000
,
0000
0000
0001
0000
0000
0000
0100
0000
,
0000
0000
0001
0000
0000
0000
0100
0000
,
0000
0000
0001
0000
0000
0000
0010
0000
,
0001
0000
0000
0000
0100
0000
0000
0000
,
0000
0000
0000
0000
0001
0000
0000
0000
,
0001
0000
0000
0000
0100
0000
0000
0000
,
0000
0000
0000
0000
0001
0000
0000
0000
,
0000
0000
0000
0000
0001
0000
0000
0000
,
0000
0000
0000
0000
0000
0000
1000
0000
,
0000
0000
0000
0000
0001
0000
0000
0000
,
0000
0000
0000
0000
0001
0000
0000
0000
,
0001
0000
1000
0000
0000
0000
0000
0000
,
0000
0000
0000
0000
1000
0000
0000
0000
,
1000
0000
0001
0000
0000
0000
0000
0000
,
0000
0000
0000
0000
1000
0000
0000
0000
,
0001
0000
0000
0000
1010
0000
0000
0000
,
0000
0000
0001
0000
0000
0000
0100
0000
,
1000
0000
0000
0000
0000
0000
0100
0000
,
0001
0000
0000
0000
0100
0000
0000
0000
,
1000
0000
0001
0000
0000
0000
0000
0000
,
0000
0000
0000
0000
1000
0000
0000
0000
,
1000
0000
0001
0000
0000
0000
0000
0000
,
0000
0000
0000
0000
1000
0000
0000
0000
,
0001
0000
0000
0000
0100
0000
0000
0000
,
0000
0000
0001
0000
0000
0000
0100
0000
,
0000
0000
0000
0000
1000
0000
0000
0000
,
0000
0000
0000
0000
0001
0000
0000
0000
,
0001
0000
1000
0000
0000
0000
0000
0000
,
0000
0000
0000
0000
1000
0000
0000
0000
,
1000
0000
0001
0000
0000
0000
0000
0000
,
0000
0000
0000
0000
1000
0000
0000
0000
,
0001
0000
0000
0000
0100
0000
0000
0000
,
0000
0000
0001
0000
0000
0000
0100
0000
,
1000
0000
0000
0000
0000
0000
0100
0000
,
0001
0000
0000
0000
0100
0000
0000
0000
,
1000
0000
0000
0000
0000
0000
0000
0000
,
0000
0000
0000
0000
0001
0000
0000
0000
,
0000
0000
0000
0000
1000
0000
0000
0000
,
1000
0000
0000
0000
0000
0000
0000
0000
,
1000
0000
0000
0000
0000
0000
0000
0000
,
0000
0000
0000
0000
0001
0000
0000
0000
,
0000
0000
0000
0000
0001
0000
0000
0000
,
0000
0000
0000
0000
0001
0000
0000
0000
,
1000
0000
0000
0000
0000
0000
0000
0000
,
0000
0000
0000
0000
0001
0000
0000
0000
,
0000
0000
0000
0000
0001
0000
0000
0000
,
0000
0000
0000
0000
0001
0000
0000
0000
,
0000
0000
0000
0000
1000
0000
0000
0000
,
0000
0000
0000
0000
1000
0000
0000
0000
,
0000
0000
1000
0000
1000
0000
0010
0000
,
0001
0000
0000
0000
0000
0000
0100
0000
,
0001
0000
0000
0000
0010
0000
0000
0000
,
0001
0000
0000
0000
1000
0000
0000
0000
,
1000
0000
0000
0000
0100
0000
0000
0000
,
0001
0000
0000
0000
1000
0000
0000
0000
,
1000
0000
0000
0000
1010
0000
0000
0000
,
1000
0000
0000
0000
0100
0000
0000
0000
,
1000
0000
0000
0000
0100
0000
0000
0000
,
0001
0000
0000
0000
0100
0000
0000
0000
,
1000
0000
0000
0000
0100
0000
0000
0000
,
0001
0000
0000
0000
1000
0000
0000
0000
,
1000
0000
0000
0000
0100
0000
0000
0000
,
1000
0000
0000
0000
0010
0000
0000
0000
,
1000
0000
0000
0000
1010
0000
0000
0000
,
1000
0000
0000
0000
1010
0000
0000
0000
,
0000
0000
1000
0000
0100
0000
0010
0000
,
0001
0000
1000
0000
0000
0000
0000
0000
,
0000
0000
1000
0000
0000
0000
0001
0000
,
0001
0000
0100
0000
0000
0000
0000
0000
,
0001
0000
0000
0000
0000
0000
1000
0000
,
0001
0000
0100
0000
0000
0000
0000
0000
,
0001
0000
0000
0000
0000
0000
1000
0000
,
0001
0000
0100
0000
0000
0000
0000
0000
,
1000
0000
1000
0000
0000
0000
0000
0000
,
0000
0000
1000
0000
0000
0000
0010
0000
,
1010
0000
0000
0000
1100
0000
0001
0000
,
0001
0000
0000
0000
0000
0000
1000
0000
,
0000
0000
1000
0000
0100
0000
0010
0000
,
1000
0000
1000
0000
0000
0000
0000
0000
,
0001
0000
0000
0000
0000
0000
1000
0000
,
0001
0000
0100
0000
0000
0000
0000
0000
,
1000
0000
1000
0000
0000
0000
0000
0000
,
0000
0000
1000
0000
0000
0000
0010
0000
,
0001
0000
0000
0000
0000
0000
0000
0000
,
0000
0000
0001
0000
0010
0000
0000
0000
,
0001
0000
0000
0000
0000
0000
0000
0000
,
1000
0000
0000
0000
0000
0000
0000
0000
,
0001
0000
0000
0000
0000
0000
0000
0000
,
0000
0000
0001
0000
0010
0000
0000
0000
,
0001
0000
0000
0000
0000
0000
0000
0000
,
1000
0000
0000
0000
0000
0000
0000
0000
,
0001
0000
0000
0000
0000
0000
0000
0000
,
0000
0000
0001
0000
0010
0000
0000
0000
,
0001
0000
0000
0000
0000
0000
0000
0000
,
1000
0000
0000
0000
0000
0000
0000
0000
,
0001
0000
0000
0000
0000
0000
0000
0000
,
0000
0000
0001
0000
0010
0000
0000
0000
,
0001
0000
0000
0000
0000
0000
0000
0000
,
1000
0000
0000
0000
0000
0000
0000
0000
,
0001
0000
0000
0000
0000
0000
0000
0000
,
0000
0000
0000
0000
0001
0000
0000
0000
,
1000
0000
0000
0000
0000
0000
0000
0000
,
;

//---------------dance-single - Basic----------------
#NOTEDATA:;
#CHARTNAME:;
#STEPSTYPE:dance-single;
#DESCRIPTION:Basic;
#CHARTSTYLE:;
#DIFFICULTY:Beginner;
#METER:3;
#RADARVALUES:0.133861,0.116261,0.000000,0.000000,0.000000,135.000000,135.000000,0.000000,0.000000,0.000000,0.000000,0.000000,0.000000,0.000000,0.133861,0.116261,0.000000,0.000000,0.000000,135.000000,135.000000,0.000000,0.000000,0.000000,0.000000,0.000000,0.000000,0.000000;
#CREDIT:;
#NOTES:
// measure 0
0100
0000
1000
0000
,  // measure 1
0010
0000
0010
0000
,  // measure 2
0010
0000
1000
0000
,  // measure 3
0001
0000
0010
0000
,  // measure 4
0001
0000
0010
0000
,  // measure 5
1000
0000
0100
0000
,  // measure 6
0001
0000
0010
0000
,  // measure 7
1000
0000
0100
0000
,  // measure 8
0001
0000
0100
0000
,  // measure 9
0010
0000
0100
0000
,  // measure 10
1000
0000
0100
0000
,  // measure 11
0010
0000
0001
0000
,  // measure 12
1000
0000
0100
0000
,  // measure 13
0010
0000
0010
0000
,  // measure 14
1000
0000
0010
0000
,  // measure 15
0010
0000
0010
0000
,  // measure 16
1000
0000
0100
0000
,  // measure 17
0010
0000
1000
0000
,  // measure 18
0001
0000
0010
0000
,  // measure 19
0001
0000
0100
0000
,  // measure 20
1000
0000
1000
0000
,  // measure 21
0010
0000
0010
0000
,  // measure 22
1000
0000
0100
0000
,  // measure 23
0001
0000
0010
0000
,  // measure 24
0001
0000
0100
0000
,  // measure 25
0010
0000
0100
0000
,  // measure 26
0001
0000
0010
0000
,  // measure 27
1000
0000
0001
0000
,  // measure 28
1000
0000
0100
0000
,  // measure 29
0010
0000
0010
0000
,  // measure 30
1000
0000
0100
0000
,  // measure 31
0100
0000
0010
0000
,  // measure 32
0001
0000
0100
0000
,  // measure 33
0001
0000
0001
0000
,  // measure 34
0001
0000
0010
0000
,  // measure 35
0001
0000
0100
0000
,  // measure 36
1000
0000
1000
0000
,  // measure 37
1000
0000
0010
0000
,  // measure 38
0001
0000
0010
0000
,  // measure 39
1000
0000
0100
0000
,  // measure 40
1000
0000
0010
0000
,  // measure 41
1000
0000
0100
0000
,  // measure 42
0001
0000
1000
0000
,  // measure 43
0001
0000
1000
0000
,  // measure 44
1000
0000
0100
0000
,  // measure 45
1000
0000
0100
0000
,  // measure 46
1000
0000
0010
0000
,  // measure 47
1000
0000
0100
0000
,  // measure 48
0001
0000
0100
0000
,  // measure 49
0001
0000
0010
0000
,  // measure 50
0100
0000
1000
0000
,  // measure 51
1000
0000
1000
0000
,  // measure 52
1000
0000
0010
0000
,  // measure 53
0001
0000
0010
0000
,  // measure 54
0001
0000
0010
0000
,  // measure 55
0001
0000
0010
0000
,  // measure 56
0001
0000
0001
0000
,  // measure 57
0001
0000
0100
0000
,  // measure 58
0001
0000
0010
0000
,  // measure 59
1000
0000
0001
0000
,  // measure 60
0001
0000
0010
0000
,  // measure 61
0001
0000
0010
0000
,  // measure 62
0001
0000
0010
0000
,  // measure 63
1000
0000
0010
0000
,  // measure 64
0100
0000
0010
0000
,  // measure 65
1000
0000
0001
0000
,  // measure 66
0100
0000
1000
0000
,  // measure 67
0010
0000
0000
0000
;
