#TITLE:Crash Twinsanity Soundtrack - River Boat Area;
#SUBTITLE:;
#ARTIST:Crash Bandicoot Twinsanity;
#TITLETRANSLIT:;
#SUBTITLETRANSLIT:;
#ARTISTTRANSLIT:;
#GENRE:;
#CREDIT:Gorilla v1.1.3 (Dancing Monkeys v1.06);
#BANNER:;
#BACKGROUND:;
#LYRICSPATH:;
#CDTITLE:;
#MUSIC:Crash Twinsanity Soundtrack - River Boat Area.mp3;
#OFFSET:-0.109365;
#SAMPLESTART:44.565144;
#SAMPLELENGTH:12.000000;
#SELECTABLE:YES;
#BPMS:0.000000=134.966003
;
#STOPS:
;
#BGCHANGES:;
#KEYSOUNDS:;
#ATTACKS:;

//---------------dance-single - Basic----------------
#NOTES:
     dance-single:
     Basic:
     Easy:
     3:
     0.170754,0.174752,0.000000,0.007565,0.000000,158.000000,158.000000,0.000000,1.000000,0.000000,0.000000,0.170754,0.174752,0.000000,0.007565,0.000000,158.000000,158.000000,0.000000,1.000000,0.000000,0.000000:
// measure 0
1000
1000
0001
0000
,  // measure 1
0010
0001
0001
0000
,  // measure 2
0001
1000
0100
0000
,  // measure 3
1000
0001
0100
0000
,  // measure 4
0001
1000
0010
0000
,  // measure 5
0001
1000
0010
0000
,  // measure 6
0001
1000
0100
0000
,  // measure 7
0001
1000
0010
0000
,  // measure 8
1000
0001
0010
0000
,  // measure 9
1000
0001
0100
0000
,  // measure 10
1000
0001
0100
0000
,  // measure 11
1000
0001
0100
0000
,  // measure 12
0001
0010
0100
0000
,  // measure 13
0001
0010
0100
0000
,  // measure 14
1000
0010
0100
0000
,  // measure 15
0001
1000
1000
1000
,  // measure 16
0000
0010
0100
0000
,  // measure 17
1000
0100
0010
0000
,  // measure 18
1000
0010
0100
0000
,  // measure 19
0001
0001
0001
0001
,  // measure 20
0000
0001
0000
0100
,  // measure 21
0000
1000
0100
0010
,  // measure 22
1000
0001
0100
0100
,  // measure 23
0000
0001
0000
0100
,  // measure 24
0001
0001
0001
0100
,  // measure 25
0000
1000
0100
0010
,  // measure 26
0001
0001
0001
0100
,  // measure 27
0000
0001
0000
0000
,  // measure 28
1000
1000
1000
0010
,  // measure 29
0000
0001
0000
0100
,  // measure 30
0100
1000
1000
1000
,  // measure 31
0000
0100
0000
0010
,  // measure 32
0000
0001
0000
0100
,  // measure 33
0000
0010
0000
0010
,  // measure 34
0000
1000
0000
0010
,  // measure 35
0000
1000
0000
0100
,  // measure 36
0000
0002
0000
0000
,  // measure 37
0000
0000
0000
0000
,  // measure 38
0000
0000
0000
0000
,  // measure 39
0000
0000
0000
0003
,  // measure 40
0000
0001
0000
0100
,  // measure 41
1000
0001
0000
0100
,  // measure 42
0001
0010
0100
0000
,  // measure 43
1000
0100
0010
0000
,  // measure 44
1000
0001
0000
0100
,  // measure 45
0010
1000
0000
0001
,  // measure 46
1000
0001
0000
0100
,  // measure 47
0010
1000
0000
0001
,  // measure 48
1000
0001
0000
0100
,  // measure 49
1000
0001
0000
0010
,  // measure 50
0001
0100
0000
0010
,  // measure 51
1000
0001
0000
0100
,  // measure 52
0001
1000
0000
0010
,  // measure 53
0000
1000
0100
0010
,  // measure 54
1000
0001
0000
0100
,  // measure 55
1000
0001
0000
0010
,  // measure 56
0001
0000
0010
0001
,  // measure 57
1000
0001
0000
0100
;
