#VERSION:0.83;
#TITLE:Crash Twinsanity Soundtrack - Cavern Catastrophe;
#SUBTITLE:;
#ARTIST:Crash Bandicoot Twinsanity;
#TITLETRANSLIT:;
#SUBTITLETRANSLIT:;
#ARTISTTRANSLIT:;
#GENRE:;
#ORIGIN:;
#CREDIT:Gorilla v1.1.3 (Dancing Monkeys v1.06);
#BANNER:;
#BACKGROUND:;
#PREVIEWVID:;
#JACKET:;
#CDIMAGE:;
#DISCIMAGE:;
#LYRICSPATH:;
#CDTITLE:;
#MUSIC:Crash Twinsanity Soundtrack - Cavern Catastrophe.mp3;
#OFFSET:-1.905057;
#SAMPLESTART:46.349499;
#SAMPLELENGTH:12.000000;
#SELECTABLE:YES;
#BPMS:0.000=135.000;
#STOPS:;
#DELAYS:;
#WARPS:;
#TIMESIGNATURES:0.000=4=4;
#TICKCOUNTS:0.000=4;
#COMBOS:0.000=1;
#SPEEDS:0.000=1.000=0.000=0;
#SCROLLS:0.000=1.000;
#FAKES:;
#LABELS:0.000=Song Start;
#BGCHANGES:;
#KEYSOUNDS:;
#ATTACKS:
;

//---------------dance-single - Basic----------------
#NOTEDATA:;
#CHARTNAME:Basic;
#STEPSTYPE:dance-single;
#DESCRIPTION:Basic;
#CHARTSTYLE:;
#DIFFICULTY:Easy;
#METER:3;
#RADARVALUES:0.140896,0.135033,0.000000,0.000000,0.000000,149.000000,149.000000,0.000000,0.000000,0.000000,0.000000,0.000000,0.000000,0.000000,0.140896,0.135033,0.000000,0.000000,0.000000,149.000000,149.000000,0.000000,0.000000,0.000000,0.000000,0.000000,0.000000,0.000000;
#CREDIT:Basic;
#NOTES:
// measure 0
0000
0000
0001
0010
,  // measure 1
0000
0001
1000
0010
,  // measure 2
1000
0010
1000
0000
,  // measure 3
0000
1000
0001
0100
,  // measure 4
0000
0001
1000
0010
,  // measure 5
0000
0001
1000
0010
,  // measure 6
1000
0100
0000
0000
,  // measure 7
0001
0010
0000
0100
,  // measure 8
1000
0001
0010
0000
,  // measure 9
0001
0001
0100
0010
,  // measure 10
0001
1000
0000
0100
,  // measure 11
0001
1000
0000
0100
,  // measure 12
0001
1000
0000
0100
,  // measure 13
0001
1000
0000
0010
,  // measure 14
1000
0001
0000
0010
,  // measure 15
0001
1000
0000
0100
,  // measure 16
1000
0001
0000
0100
,  // measure 17
0001
1000
0000
0010
,  // measure 18
0001
1000
0000
0100
,  // measure 19
0000
0001
0100
0010
,  // measure 20
0001
1000
0000
0100
,  // measure 21
0001
1000
0000
0100
,  // measure 22
0001
0010
0000
0100
,  // measure 23
0001
0100
0000
0010
,  // measure 24
1000
0010
0000
0100
,  // measure 25
0001
0100
0000
0010
,  // measure 26
1000
0001
0010
0000
,  // measure 27
0000
0001
0100
0010
,  // measure 28
0000
0001
0010
0100
,  // measure 29
0001
0100
0010
0000
,  // measure 30
0001
0000
0010
0000
,  // measure 31
0000
1000
0001
0100
,  // measure 32
0000
0001
1000
0010
,  // measure 33
0000
0001
1000
0100
,  // measure 34
0000
1000
0001
0100
,  // measure 35
0000
1000
0001
0010
,  // measure 36
0000
0001
1000
0100
,  // measure 37
0000
1000
0001
0010
,  // measure 38
0000
0001
0100
0010
,  // measure 39
0000
0000
0001
0010
,  // measure 40
1000
0010
1000
0000
,  // measure 41
0001
0010
0001
0000
,  // measure 42
0000
0000
0000
1000
,  // measure 43
0001
0001
0000
1000
,  // measure 44
0000
1000
0001
0100
,  // measure 45
0000
0001
1000
0010
,  // measure 46
0000
1000
0001
0010
,  // measure 47
0000
1000
0001
0100
,  // measure 48
0000
0001
1000
0100
,  // measure 49
1000
0100
0000
0010
,  // measure 50
0000
0001
0100
0010
,  // measure 51
0001
0000
0000
0000
;
