#VERSION:0.83;
#TITLE:Crash Bandicoot Rap;
#SUBTITLE:Ooga Booga Boogie;
#ARTIST:Crash Bandicoot;
#TITLETRANSLIT:;
#SUBTITLETRANSLIT:;
#ARTISTTRANSLIT:;
#GENRE:;
#ORIGIN:;
#CREDIT:Gorilla v1.1.3 (Dancing Monkeys v1.06);
#BANNER:maxresdefault.png;
#BACKGROUND:images.png;
#PREVIEWVID:;
#JACKET:;
#CDIMAGE:;
#DISCIMAGE:;
#LYRICSPATH:;
#CDTITLE:;
#MUSIC:CRASH BANDICOOT RAP by JT Music - The Ooda-Booga Boogie.mp3;
#OFFSET:-0.716009;
#SAMPLESTART:51.738049;
#SAMPLELENGTH:12.000000;
#SELECTABLE:YES;
#BPMS:0.000=127.004;
#STOPS:;
#DELAYS:;
#WARPS:;
#TIMESIGNATURES:0.000=4=4;
#TICKCOUNTS:0.000=4;
#COMBOS:0.000=1;
#SPEEDS:0.000=1.000=0.000=0;
#SCROLLS:0.000=1.000;
#FAKES:;
#LABELS:0.000=Song Start;
#BGCHANGES:;
#KEYSOUNDS:;
#ATTACKS:
;

//---------------dance-single - Basic----------------
#NOTEDATA:;
#CHARTNAME:Basic;
#STEPSTYPE:dance-single;
#DESCRIPTION:Basic;
#CHARTSTYLE:;
#DIFFICULTY:Easy;
#METER:3;
#RADARVALUES:0.143850,0.131035,0.000000,0.007515,0.000000,134.000000,134.000000,0.000000,1.000000,0.000000,0.000000,0.000000,0.000000,0.000000,0.143850,0.131035,0.000000,0.007515,0.000000,134.000000,134.000000,0.000000,1.000000,0.000000,0.000000,0.000000,0.000000,0.000000;
#CREDIT:Basic;
#NOTES:
// measure 0
0000
0000
0000
0000
,  // measure 1
1000
0000
0010
0000
,  // measure 2
0100
0000
1000
0000
,  // measure 3
0010
0000
1000
0000
,  // measure 4
0001
0000
0010
0000
,  // measure 5
1000
0000
0010
0000
,  // measure 6
1000
0000
0010
0000
,  // measure 7
0001
0001
0000
0000
,  // measure 8
1000
1000
0000
0000
,  // measure 9
1000
0000
0010
0000
,  // measure 10
0001
0001
0000
0100
,  // measure 11
0000
0100
0000
0000
,  // measure 12
1000
0000
0010
0000
,  // measure 13
1000
0000
0010
0000
,  // measure 14
0001
0000
0100
0000
,  // measure 15
1000
0000
0010
0000
,  // measure 16
1000
0000
0100
0000
,  // measure 17
1000
0000
0100
0000
,  // measure 18
1000
0000
0100
0000
,  // measure 19
0001
0000
0100
0000
,  // measure 20
0001
0000
0010
0000
,  // measure 21
0001
0000
0010
0000
,  // measure 22
1000
0000
0100
0000
,  // measure 23
0000
1000
0000
0010
,  // measure 24
0000
1000
0000
1000
,  // measure 25
0000
1000
0000
1000
,  // measure 26
0000
0001
0000
0001
,  // measure 27
0000
1000
0000
0010
,  // measure 28
0000
0100
0000
0000
,  // measure 29
1000
0000
0010
0000
,  // measure 30
1000
0000
0010
0000
,  // measure 31
1000
0000
0010
0000
,  // measure 32
0001
0000
0100
0000
,  // measure 33
1000
0000
0010
0000
,  // measure 34
0001
0000
0010
0000
,  // measure 35
0001
0000
1000
0000
,  // measure 36
0010
0000
0010
0000
,  // measure 37
1000
0000
0100
0000
,  // measure 38
1000
0000
0010
0000
,  // measure 39
1000
0000
0100
0000
,  // measure 40
1000
0000
0100
0000
,  // measure 41
0001
0000
0010
0000
,  // measure 42
1000
0000
1000
0000
,  // measure 43
0010
0000
1000
0000
,  // measure 44
0001
0000
0100
0000
,  // measure 45
1000
0000
0100
0000
,  // measure 46
0010
0000
1000
0000
,  // measure 47
1000
0000
0010
0000
,  // measure 48
0001
0000
0001
0000
,  // measure 49
0000
0100
0000
0010
,  // measure 50
0000
0100
0000
0001
,  // measure 51
0000
0100
0000
2000
,  // measure 52
0000
0000
0000
3000
,  // measure 53
0000
0010
0000
1000
,  // measure 54
0000
0000
0100
0000
,  // measure 55
1000
0000
0100
0000
,  // measure 56
0001
0000
0100
0000
,  // measure 57
1000
0000
0010
0000
,  // measure 58
0001
0000
0001
0000
,  // measure 59
1000
0000
0100
0000
,  // measure 60
0001
0000
0000
0010
,  // measure 61
0000
0010
0000
1000
,  // measure 62
0000
0010
0000
0100
,  // measure 63
0000
0001
0000
0100
,  // measure 64
0000
0010
0000
1000
,  // measure 65
0000
0010
0000
0100
,  // measure 66
0000
0010
0000
0100
,  // measure 67
0000
0001
0000
1000
,  // measure 68
0000
0001
0000
1000
,  // measure 69
0000
0010
0000
0001
;

//---------------dance-single - Basic----------------
#NOTEDATA:;
#CHARTNAME:;
#STEPSTYPE:dance-single;
#DESCRIPTION:Basic;
#CHARTSTYLE:;
#DIFFICULTY:Medium;
#METER:3;
#RADARVALUES:0.229731,0.314484,0.045087,0.007515,0.000000,214.000000,208.000000,6.000000,1.000000,0.000000,0.000000,0.000000,0.000000,0.000000,0.229731,0.314484,0.045087,0.007515,0.000000,214.000000,208.000000,6.000000,1.000000,0.000000,0.000000,0.000000,0.000000,0.000000;
#CREDIT:;
#NOTES:
// measure 0
0000
0000
0000
0000
,  // measure 1
1000
0000
0010
0000
,  // measure 2
0100
0000
1000
0000
,  // measure 3
0010
0000
1000
0000
,  // measure 4
0001
0000
0010
0000
,  // measure 5
1000
0000
0010
0000
,  // measure 6
1000
0000
0010
0000
,  // measure 7
0001
0001
0000
0000
,  // measure 8
1000
1000
0000
0000
,  // measure 9
1000
0100
0010
0000
,  // measure 10
0001
0001
0000
0100
,  // measure 11
1000
0100
0010
0000
,  // measure 12
1000
0001
0010
0000
,  // measure 13
1000
0001
0010
0000
,  // measure 14
0001
1000
0100
0000
,  // measure 15
1000
0001
0010
0000
,  // measure 16
1000
0001
0100
0000
,  // measure 17
1000
0001
0100
0010
,  // measure 18
1000
0001
0100
0010
,  // measure 19
0001
1000
0100
0010
,  // measure 20
0001
1000
0010
0100
,  // measure 21
0001
1000
0010
1000
,  // measure 22
1000
0001
0100
0001
,  // measure 23
0000
1000
0100
0010
,  // measure 24
0001
1000
0010
1000
,  // measure 25
0001
1000
0010
1000
,  // measure 26
1000
0001
0010
0001
,  // measure 27
0001
1000
0100
0010
,  // measure 28
0001
0100
0010
0000
,  // measure 29
1000
0100
0010
0000
,  // measure 30
1000
0100
0010
0000
,  // measure 31
1000
0100
0010
0000
,  // measure 32
0001
0010
0100
0000
,  // measure 33
1001
0100
0010
0000
,  // measure 34
1001
0100
0010
0000
,  // measure 35
0001
0000
1000
0000
,  // measure 36
0010
0000
0010
0000
,  // measure 37
1000
0001
0100
0010
,  // measure 38
1000
0001
0010
0100
,  // measure 39
1000
0000
0100
0000
,  // measure 40
1000
0000
0100
0000
,  // measure 41
0001
1000
0010
0100
,  // measure 42
1001
0010
1000
0001
,  // measure 43
1001
1000
0001
1000
,  // measure 44
1001
0001
0100
0010
,  // measure 45
1001
0010
0100
1000
,  // measure 46
0010
0100
1000
0001
,  // measure 47
1000
0100
0010
0001
,  // measure 48
0001
0001
0001
0001
,  // measure 49
0000
0100
0000
0010
,  // measure 50
0000
0100
0000
0001
,  // measure 51
0000
0100
0000
2000
,  // measure 52
0000
0000
0000
3000
,  // measure 53
0000
0010
0001
1000
,  // measure 54
1000
0000
0100
0001
,  // measure 55
1000
0001
0100
0010
,  // measure 56
0001
1000
0100
0010
,  // measure 57
1000
0001
0010
0100
,  // measure 58
0001
1000
0001
0010
,  // measure 59
1000
0001
0100
0010
,  // measure 60
0001
0000
0000
0010
,  // measure 61
1000
0010
1000
0000
,  // measure 62
1000
0000
0010
0000
,  // measure 63
0100
0000
1000
0000
,  // measure 64
0010
0000
0100
0000
,  // measure 65
0001
0000
0010
0000
,  // measure 66
1000
0000
0100
0000
,  // measure 67
0010
0000
1000
0000
,  // measure 68
0001
0001
0001
0000
,  // measure 69
1000
0010
0010
0001
;
