#VERSION:0.83;
#TITLE:Crash and Burn (Crash VS Spyro);
#SUBTITLE:;
#ARTIST:Dancing Monkeys Project;
#TITLETRANSLIT:;
#SUBTITLETRANSLIT:;
#ARTISTTRANSLIT:;
#GENRE:;
#ORIGIN:;
#CREDIT:Gorilla v1.1.3 (Dancing Monkeys v1.06);
#BANNER:maxresfhrhddefault.png;
#BACKGROUND:maxrreheesdefault.png;
#PREVIEWVID:;
#JACKET:;
#CDIMAGE:;
#DISCIMAGE:;
#LYRICSPATH:;
#CDTITLE:;
#MUSIC:Crash and Burn (Crash VS Spyro).mp3;
#OFFSET:-0.275147;
#SAMPLESTART:47.266895;
#SAMPLELENGTH:12.000000;
#SELECTABLE:YES;
#BPMS:0.000=144.002;
#STOPS:;
#DELAYS:;
#WARPS:;
#TIMESIGNATURES:0.000=4=4;
#TICKCOUNTS:0.000=4;
#COMBOS:0.000=1;
#SPEEDS:0.000=1.000=0.000=0;
#SCROLLS:0.000=1.000;
#FAKES:;
#LABELS:0.000=Song Start;
#BGCHANGES:;
#KEYSOUNDS:;
#ATTACKS:
;

//---------------dance-single - Basic----------------
#NOTEDATA:;
#CHARTNAME:Basic;
#STEPSTYPE:dance-single;
#DESCRIPTION:Basic;
#CHARTSTYLE:;
#DIFFICULTY:Easy;
#METER:3;
#RADARVALUES:0.148059,0.177878,0.000000,0.004821,0.000000,215.000000,215.000000,0.000000,1.000000,0.000000,0.000000,0.000000,0.000000,0.000000,0.148059,0.177878,0.000000,0.004821,0.000000,215.000000,215.000000,0.000000,1.000000,0.000000,0.000000,0.000000,0.000000,0.000000;
#CREDIT:Basic;
#NOTES:
// measure 0
1000
0000
0000
0001
,  // measure 1
0010
0100
0000
1000
,  // measure 2
0000
0100
0001
0001
,  // measure 3
0000
0100
0000
1000
,  // measure 4
0001
0001
1000
0100
,  // measure 5
0000
1000
0000
0100
,  // measure 6
0000
0001
0000
0100
,  // measure 7
0000
0001
0000
0010
,  // measure 8
0000
1000
0010
0010
,  // measure 9
0000
0010
0000
0100
,  // measure 10
0000
0100
0100
1000
,  // measure 11
0000
0100
0000
0000
,  // measure 12
1000
0000
0100
0100
,  // measure 13
1000
0000
0100
0010
,  // measure 14
1000
0001
0100
0100
,  // measure 15
0100
0001
1000
0100
,  // measure 16
1000
0001
0100
0100
,  // measure 17
0100
0000
0100
0000
,  // measure 18
1000
0000
0001
0000
,  // measure 19
0100
0000
0010
0000
,  // measure 20
1000
0000
0010
0000
,  // measure 21
0001
0000
0100
0000
,  // measure 22
1000
0000
0010
0000
,  // measure 23
0100
0000
1000
0000
,  // measure 24
0010
0000
0100
0000
,  // measure 25
0001
0000
0100
0000
,  // measure 26
0010
0000
1000
0000
,  // measure 27
0010
0000
1000
0000
,  // measure 28
0100
0000
0010
0000
,  // measure 29
0001
0000
0100
0100
,  // measure 30
0000
0001
0001
0000
,  // measure 31
1000
0000
0100
0000
,  // measure 32
0001
0001
1000
1000
,  // measure 33
1000
0000
0100
0100
,  // measure 34
0100
0000
0010
0000
,  // measure 35
0001
0000
0100
0000
,  // measure 36
0001
0000
0010
0010
,  // measure 37
0010
0000
1000
0100
,  // measure 38
0010
0001
0000
0100
,  // measure 39
0000
0001
0000
0010
,  // measure 40
0000
0001
0000
0100
,  // measure 41
0000
0001
0000
0100
,  // measure 42
0000
0001
0000
0100
,  // measure 43
0000
0010
0000
0010
,  // measure 44
0000
0001
0000
0100
,  // measure 45
0000
0001
1000
0100
,  // measure 46
1000
0001
0000
0100
,  // measure 47
0001
0010
0100
0010
,  // measure 48
0001
0010
0000
0100
,  // measure 49
0000
0001
1000
0100
,  // measure 50
1000
0001
0000
0100
,  // measure 51
0001
0010
0100
0010
,  // measure 52
1000
0001
0000
0100
,  // measure 53
0000
0001
1000
0100
,  // measure 54
1000
0001
0000
0100
,  // measure 55
0001
0010
0100
0010
,  // measure 56
0000
0001
0100
0100
,  // measure 57
0100
0000
0100
0000
,  // measure 58
1000
0000
0100
0010
,  // measure 59
0000
0001
0100
1000
,  // measure 60
0000
0100
0100
1000
,  // measure 61
0000
0001
0000
0100
,  // measure 62
1000
0001
0000
0100
,  // measure 63
0000
0001
1000
0100
,  // measure 64
0000
0001
0001
0100
,  // measure 65
0000
1000
1000
1000
,  // measure 66
1000
1000
1000
1000
,  // measure 67
1000
1000
1000
1000
,  // measure 68
1000
0001
0001
0001
,  // measure 69
0001
0010
0100
0010
,  // measure 70
1000
0001
0000
0100
,  // measure 71
0000
0001
0000
0100
,  // measure 72
0000
0001
0000
0100
,  // measure 73
0000
0010
0000
0010
,  // measure 74
0000
0001
0000
0100
,  // measure 75
0000
0001
0000
0100
,  // measure 76
0000
0001
0000
0100
,  // measure 77
0000
0100
0000
1000
,  // measure 78
0000
0010
0000
1000
,  // measure 79
0000
0010
0000
1000
,  // measure 80
0000
0010
0001
0000
,  // measure 81
0001
0000
0002
0000
,  // measure 82
0003
0000
0000
0000
;
