#TITLE:Cotton Candy;
#SUBTITLE:;
#ARTIST:Helluva Boss;
#TITLETRANSLIT:;
#SUBTITLETRANSLIT:;
#ARTISTTRANSLIT:;
#GENRE:;
#CREDIT:Gorilla v1.1.3 (Dancing Monkeys v1.06);
#BANNER:;
#BACKGROUND:;
#LYRICSPATH:;
#CDTITLE:;
#MUSIC:Cotton Candy Song from HELLUVA BOSS - QUEEN BEE S1_ Episode 8.mp3;
#OFFSET:-0.350431;
#SAMPLESTART:51.081680;
#SAMPLELENGTH:12.000000;
#SELECTABLE:YES;
#BPMS:0.000000=123.000999
;
#STOPS:23.000000=1.951000
;
#BGCHANGES:;
#KEYSOUNDS:;
#ATTACKS:;

//---------------dance-single - Basic----------------
#NOTES:
     dance-single:
     Basic:
     Easy:
     3:
     0.158124,0.175542,0.000000,0.038433,0.000000,144.000000,144.000000,0.000000,5.000000,0.000000,0.000000,0.158124,0.175542,0.000000,0.038433,0.000000,144.000000,144.000000,0.000000,5.000000,0.000000,0.000000:
// measure 0
0010
0000
0000
0000
,  // measure 1
0000
0000
0001
0000
,  // measure 2
0000
0001
0000
0000
,  // measure 3
0010
0000
0001
0000
,  // measure 4
0001
0000
0100
0000
,  // measure 5
0000
1000
0000
0000
,  // measure 6
0000
1000
0100
0010
,  // measure 7
0001
1000
0100
0010
,  // measure 8
0001
1000
0100
0010
,  // measure 9
0001
1000
0010
0020
,  // measure 10
0030
1000
0100
0010
,  // measure 11
0001
1000
0010
2000
,  // measure 12
0000
3000
0002
0000
,  // measure 13
0000
0003
0000
0100
,  // measure 14
0000
1000
0001
0010
,  // measure 15
0001
1000
0100
0010
,  // measure 16
0001
1000
0100
0010
,  // measure 17
0001
1000
0100
0001
,  // measure 18
0001
0001
0001
0001
,  // measure 19
0000
0001
1000
0010
,  // measure 20
0000
1000
0001
0100
,  // measure 21
0000
0001
1000
0010
,  // measure 22
0000
1000
0001
0010
,  // measure 23
0000
0001
1000
0100
,  // measure 24
0000
0001
1000
0010
,  // measure 25
0001
1000
0000
0001
,  // measure 26
0000
1000
0001
0000
,  // measure 27
1000
2000
0000
0000
,  // measure 28
0000
0000
3000
0000
,  // measure 29
0000
1000
0001
0100
,  // measure 30
0000
1000
0001
0100
,  // measure 31
0000
0001
1000
0010
,  // measure 32
1000
0100
0010
0000
,  // measure 33
0001
0000
0100
0010
,  // measure 34
0000
1000
0001
0100
,  // measure 35
0000
0001
0001
0100
,  // measure 36
0000
1000
0001
0100
,  // measure 37
0001
1000
0100
0010
,  // measure 38
0000
1000
0001
0100
,  // measure 39
0000
1000
0001
0100
,  // measure 40
0001
1000
0100
0010
,  // measure 41
0000
1000
0001
0100
,  // measure 42
0000
0001
1000
0100
,  // measure 43
0001
2000
0000
3000
,  // measure 44
0000
0000
0000
0000
,  // measure 45
0000
0100
0100
0100
,  // measure 46
0100
1000
1000
1000
,  // measure 47
1000
0001
0001
0001
,  // measure 48
0001
0100
0100
0100
,  // measure 49
0000
0001
0001
0001
,  // measure 50
0001
1000
1000
1000
;
