#TITLE:Commas;
#SUBTITLE:;
#ARTIST:Ayra Starr;
#TITLETRANSLIT:;
#SUBTITLETRANSLIT:;
#ARTISTTRANSLIT:;
#GENRE:;
#CREDIT:Gorilla v1.1.3 (Dancing Monkeys v1.06);
#BANNER:;
#BACKGROUND:;
#LYRICSPATH:;
#CDTITLE:;
#MUSIC:Ayra Starr - Commas (Lyric Video).mp3;
#OFFSET:-0.111293;
#SAMPLESTART:60.113560;
#SAMPLELENGTH:12.000000;
#SELECTABLE:YES;
#BPMS:0.000000=99.996002
;
#STOPS:
;
#BGCHANGES:;
#KEYSOUNDS:;
#ATTACKS:;

//---------------dance-single - Basic----------------
#NOTES:
     dance-single:
     Basic:
     Easy:
     3:
     0.119175,0.102649,0.000000,0.000000,0.000000,96.000000,96.000000,0.000000,0.000000,0.000000,0.000000,0.119175,0.102649,0.000000,0.000000,0.000000,96.000000,96.000000,0.000000,0.000000,0.000000,0.000000:
// measure 0
1000
0000
0010
0000
,  // measure 1
1000
0000
0010
0000
,  // measure 2
0001
0000
0010
0000
,  // measure 3
1000
0000
0010
0000
,  // measure 4
1000
0000
0010
0000
,  // measure 5
1000
1000
0000
1000
,  // measure 6
0000
0100
0000
1000
,  // measure 7
0000
0100
0000
0001
,  // measure 8
0000
0100
0000
0001
,  // measure 9
0000
0100
0000
1000
,  // measure 10
0000
0100
0000
1000
,  // measure 11
0000
0100
0000
1000
,  // measure 12
0000
0100
0000
0001
,  // measure 13
0000
0100
0000
1000
,  // measure 14
0000
0010
0000
1000
,  // measure 15
0000
0100
0000
1000
,  // measure 16
0000
0001
0000
0010
,  // measure 17
0000
1000
0000
0010
,  // measure 18
0000
0001
0000
0100
,  // measure 19
0000
0001
0000
0010
,  // measure 20
0000
1000
0000
0010
,  // measure 21
0000
0001
0000
0100
,  // measure 22
0000
0001
0000
0010
,  // measure 23
0000
0001
0000
0010
,  // measure 24
0000
1000
0000
1000
,  // measure 25
0000
0001
0000
1000
,  // measure 26
0000
0010
0000
0001
,  // measure 27
0000
1000
0000
0100
,  // measure 28
0000
0001
0000
1000
,  // measure 29
0000
0100
0000
0010
,  // measure 30
0000
1000
0000
0001
,  // measure 31
0000
0100
0000
0010
,  // measure 32
0000
0100
0000
0001
,  // measure 33
0000
0010
0000
0001
,  // measure 34
0000
0010
0000
1000
,  // measure 35
0000
0100
0000
0001
,  // measure 36
0000
1000
0000
0010
,  // measure 37
0000
0100
0000
0001
,  // measure 38
0000
0001
0000
0010
,  // measure 39
0000
0100
0000
1000
,  // measure 40
0000
0001
0000
0010
,  // measure 41
0000
0001
0000
0100
,  // measure 42
0000
0001
0000
0100
,  // measure 43
0000
1000
0000
0100
,  // measure 44
0000
0001
0000
0100
,  // measure 45
0000
0001
0000
0010
,  // measure 46
0000
1000
0000
0010
,  // measure 47
0000
1000
0000
0000
;
