#TITLE:Come & Go;
#SUBTITLE:;
#ARTIST:Juice Wrld;
#TITLETRANSLIT:;
#SUBTITLETRANSLIT:;
#ARTISTTRANSLIT:;
#GENRE:;
#CREDIT:;
#BANNER:;
#BACKGROUND:;
#LYRICSPATH:;
#CDTITLE:;
#MUSIC:Come & Go.mp3;
#OFFSET:0.000000;
#SAMPLESTART:0.000000;
#SAMPLELENGTH:12.000000;
#SELECTABLE:YES;
#BPMS:0.000000=136.000000
;
#STOPS:-0.020833=12.000000
;
#BGCHANGES:;
#KEYSOUNDS:;
#ATTACKS:;

//---------------dance-single - ----------------
#NOTES:
     dance-single:
     :
     Easy:
     1:
     0.131432,0.196166,0.000000,0.042300,0.000000,87.000000,87.000000,0.000000,4.000000,0.000000,0.000000,0.131432,0.196166,0.000000,0.042300,0.000000,87.000000,87.000000,0.000000,4.000000,0.000000,0.000000:
// measure 0
0000
0000
0000
0000
0000
0000
0000
1000
,  // measure 1
0000
0000
0000
0010
,  // measure 2
0000
0000
0000
1000
,  // measure 3
0000
0000
0000
0010
,  // measure 4
0000
0000
1000
0000
,  // measure 5
0000
0000
0100
0000
,  // measure 6
0000
0000
0001
0000
,  // measure 7
0000
0000
1000
0000
,  // measure 8
0010
0000
0000
0000
,  // measure 9
0000
1000
0000
0000
,  // measure 10
0000
0010
0000
0000
,  // measure 11
0000
1000
0000
0000
,  // measure 12
0010
0000
0000
0000
,  // measure 13
0001
0000
0000
0000
,  // measure 14
1000
0000
0000
0000
,  // measure 15
0010
0000
0000
1000
,  // measure 16
0000
0010
0000
0001
,  // measure 17
0000
0001
0000
0001
,  // measure 18
0000
0001
0000
0001
,  // measure 19
0000
1000
1000
0000
,  // measure 20
1000
0000
0010
0000
,  // measure 21
0010
0000
2000
0000
,  // measure 22
3000
0002
0000
0003
,  // measure 23
0000
1000
1000
1000
,  // measure 24
0000
0001
0001
0001
,  // measure 25
0000
1000
1000
1000
,  // measure 26
0000
0010
0010
0000
,  // measure 27
1000
1000
1000
0000
,  // measure 28
0010
0000
1000
0000
,  // measure 29
1000
0000
0010
0000
,  // measure 30
0010
0000
0000
1000
,  // measure 31
1000
1000
0000
0001
,  // measure 32
0001
0001
0000
0100
,  // measure 33
0100
0100
0000
0010
,  // measure 34
0010
0010
0000
2000
,  // measure 35
0000
0000
0000
0000
,  // measure 36
3000
0000
0002
0000
,  // measure 37
0000
0000
0003
0000
,  // measure 38
0000
1000
0000
0000
,  // measure 39
0010
0000
0000
1000
,  // measure 40
0000
0000
0001
0000
,  // measure 41
0000
0100
0000
0000
,  // measure 42
1000
0000
0000
0010
,  // measure 43
0000
0000
1000
0000
,  // measure 44
0000
0100
0000
0000
,  // measure 45
0001
0000
0000
0010
,  // measure 46
0000
0000
1000
0000
,  // measure 47
0000
0010
0000
0000
,  // measure 48
1000
0000
0010
0000
,  // measure 49
0001
0000
1000
0000
,  // measure 50
0010
0000
1000
0000
,  // measure 51
0001
0000
0010
0000
,  // measure 52
1000
0000
0010
0000
,  // measure 53
0100
0000
0000
0000
;
