#VERSION:0.83;
#TITLE:A World Without Danger;
#SUBTITLE:;
#ARTIST:Noam Kaniel;
#TITLETRANSLIT:;
#SUBTITLETRANSLIT:;
#ARTISTTRANSLIT:;
#GENRE:;
#ORIGIN:;
#CREDIT:;
#BANNER:A World Without Danger.png;
#BACKGROUND:A World Without Danger-bg.png;
#PREVIEWVID:;
#JACKET:;
#CDIMAGE:;
#DISCIMAGE:;
#LYRICSPATH:;
#CDTITLE:;
#MUSIC:A World Without Danger.mp3;
#OFFSET:-7.715000;
#SAMPLESTART:105.120003;
#SAMPLELENGTH:15.900000;
#SELECTABLE:YES;
#BPMS:0.000=127.010;
#STOPS:;
#DELAYS:;
#WARPS:;
#TIMESIGNATURES:0.000=4=4;
#TICKCOUNTS:0.000=4;
#COMBOS:0.000=1;
#SPEEDS:0.000=1.000=0.000=0;
#SCROLLS:0.000=1.000;
#FAKES:;
#LABELS:0.000=Song Start;
#BGCHANGES:0.000=-random-=1.000=1=0=1=SongBgWithMovieViz==CrossFade==,
12.000=A World Without Danger-bg.png=1.000=1=0=1===CrossFade==,
16.000=-random-=1.000=0=0=1=====,
32.000=-random-=1.000=0=0=1=====,
48.000=-random-=1.000=0=0=1===FadeRight==,
64.000=-random-=1.000=1=0=1===CrossFade==,
80.000=-random-=1.000=0=0=1===FadeLeft==,
92.000=-random-=1.000=0=0=1=SongBgWithMovieViz====,
96.000=-random-=1.000=0=0=1=====,
112.000=-random-=1.000=0=0=1=====,
128.000=-random-=1.000=0=0=1===SlideLeft==,
144.000=-random-=1.000=0=0=1=====,
160.000=-random-=1.000=0=0=1===FadeUp==,
176.000=-random-=1.000=0=0=1===FadeRight==,
192.000=-random-=1.000=0=0=1=====,
204.000=-random-=1.000=0=0=1=SongBgWithMovieViz====,
208.000=-random-=1.000=0=0=1=====,
224.000=-random-=1.000=0=0=1=====,
240.000=-random-=1.000=0=0=1===SlideRight==,
256.000=-random-=1.000=0=0=1=====,
272.000=-random-=1.000=0=0=1=SongBgWithMovieViz==FadeLeft==,
280.000=-random-=1.000=0=0=1===FadeDown==,
296.000=-random-=1.000=0=0=1=SongBgWithMovieViz====,
300.000=-random-=1.000=0=0=1=====,
316.000=-random-=1.000=0=0=1=====,
332.000=-random-=1.000=0=0=1=====,
348.000=-random-=1.000=0=0=1=====,
364.000=-random-=1.000=0=1=1=StretchRewind==FadeDown==,
380.000=-random-=1.000=0=0=1=SongBgWithMovieViz==FadeLeft==,
396.000=A World Without Danger-bg.png=1.000=1=0=1===CrossFade==,
99999=-nosongbg-=1.000=0=0=0 // don't automatically add -songbackground-
;
#KEYSOUNDS:;
#ATTACKS:
;

//---------------dance-single - Bayu E. N.----------------
#NOTEDATA:;
#CHARTNAME:Bayu E. N.;
#STEPSTYPE:dance-single;
#DESCRIPTION:Bayu E. N.;
#CHARTSTYLE:;
#DIFFICULTY:Easy;
#METER:2;
#RADARVALUES:0.087085,0.081600,0.000000,0.004800,0.000000,127.000000,127.000000,0.000000,1.000000,0.000000,0.000000,0.000000,0.000000,0.000000,0.087085,0.081600,0.000000,0.004800,0.000000,127.000000,127.000000,0.000000,1.000000,0.000000,0.000000,0.000000,0.000000,0.000000;
#CREDIT:Bayu E. N.;
#NOTES:
// measure 0
0100
0000
0100
0000
,  // measure 1
0010
0000
0010
0000
,  // measure 2
0100
0000
0100
0000
,  // measure 3
0001
0000
0000
0000
,  // measure 4
0000
0000
1000
0000
,  // measure 5
1000
0000
0100
0000
,  // measure 6
0100
0000
0001
0000
,  // measure 7
0001
0000
0001
0000
,  // measure 8
1000
0000
1000
0000
,  // measure 9
1000
0000
0001
0000
,  // measure 10
0001
0000
0001
0000
,  // measure 11
0010
0000
0010
0000
,  // measure 12
1000
0000
1000
0000
,  // measure 13
0001
0000
0001
0000
,  // measure 14
1000
0000
1000
0000
,  // measure 15
1000
0000
0001
0000
,  // measure 16
0001
0000
0001
0000
,  // measure 17
0010
0000
0010
0000
,  // measure 18
0100
0000
0100
0000
,  // measure 19
1000
0000
1000
0000
,  // measure 20
0001
0000
1000
0000
,  // measure 21
0001
0000
0001
0000
,  // measure 22
0010
0000
1000
0000
,  // measure 23
0001
0000
0000
0000
,  // measure 24
1000
0000
0100
0000
,  // measure 25
1000
0000
1000
0000
,  // measure 26
0001
0000
0010
0000
,  // measure 27
1000
0000
1000
0000
,  // measure 28
0010
0000
0100
0000
,  // measure 29
0010
0000
0000
1000
,  // measure 30
0000
0000
0000
0000
,  // measure 31
1000
0000
1000
0000
,  // measure 32
1000
0000
0100
0000
,  // measure 33
0010
0000
0001
0000
,  // measure 34
1000
0000
0100
0000
,  // measure 35
0001
0000
0010
0000
,  // measure 36
0010
0000
0100
0000
,  // measure 37
1000
0000
0100
0000
,  // measure 38
0010
0000
0001
0000
,  // measure 39
0010
0000
0000
0000
,  // measure 40
1000
0000
1000
0000
,  // measure 41
0100
0000
0010
0000
,  // measure 42
0001
0000
0001
0000
,  // measure 43
1000
0000
1000
0000
,  // measure 44
0001
0000
1000
0000
,  // measure 45
0010
0000
0010
0000
,  // measure 46
0010
0000
0100
0000
,  // measure 47
0010
0000
0001
0000
,  // measure 48
0010
0000
0010
0000
,  // measure 49
1000
0000
1000
0000
,  // measure 50
0100
0000
0100
0000
,  // measure 51
1000
0000
0000
0000
,  // measure 52
1000
0000
1000
0000
,  // measure 53
0001
0000
0010
0000
,  // measure 54
0010
0000
0100
0000
,  // measure 55
1000
0000
1000
0000
,  // measure 56
0100
0000
0001
0000
,  // measure 57
0001
0000
0010
0000
,  // measure 58
1000
0000
0000
0000
,  // measure 59
0010
0000
1000
0000
,  // measure 60
0001
0000
0001
0000
,  // measure 61
0010
0000
0010
0000
,  // measure 62
0010
0000
1000
0000
,  // measure 63
0100
0000
0100
0000
,  // measure 64
0100
0000
0010
0000
,  // measure 65
0100
0000
0001
0000
,  // measure 66
0010
0000
0100
0000
,  // measure 67
2000
0000
0000
0000
,  // measure 68
3000
0000
0000
0000
;

//---------------dance-single - Bayu E. N.----------------
#NOTEDATA:;
#CHARTNAME:;
#STEPSTYPE:dance-single;
#DESCRIPTION:Bayu E. N.;
#CHARTSTYLE:;
#DIFFICULTY:Medium;
#METER:2;
#RADARVALUES:0.170057,0.240599,0.004800,0.062400,0.000000,248.000000,247.000000,1.000000,13.000000,0.000000,0.000000,0.000000,0.000000,0.000000,0.170057,0.240599,0.004800,0.062400,0.000000,248.000000,247.000000,1.000000,13.000000,0.000000,0.000000,0.000000,0.000000,0.000000;
#CREDIT:;
#NOTES:
0100
0000
0100
0000
,
0010
0000
0010
0000
,
0100
0000
0100
0000
,
0002
0000
0000
0000
,
0003
0000
1000
0000
,
1000
0000
0100
0000
,
0100
0000
0001
0000
,
0001
0000
0001
0000
,
1000
0000
1000
0000
,
1000
0000
0001
0000
,
0001
0000
0001
0000
,
0010
0000
0010
0000
,
1000
0000
1000
0000
,
0001
0000
0001
0000
,
1000
0000
1000
0000
,
1000
0000
0001
0000
,
0001
0000
0001
0000
,
0010
0000
0010
0000
,
0100
0000
0100
0000
,
1000
0000
1000
0000
,
0001
0001
1000
1000
,
0001
0000
0001
0000
,
0010
0010
1000
1000
,
0002
0000
0000
0003
,
1000
1000
0100
0100
,
1000
1000
1000
0001
,
0001
0010
0010
1000
,
1000
1000
1000
0010
,
0010
0100
0100
0010
,
0010
0001
0001
2000
,
0000
0000
3000
0000
,
1000
0000
1000
0000
,
1000
1000
0100
0100
,
0010
0010
0001
0001
,
1000
1000
0100
0100
,
0001
0001
0010
0010
,
0010
0100
0100
1000
,
1000
0100
0100
0010
,
0010
0001
0001
0002
,
0000
0000
0000
0003
,
1000
0000
1000
0000
,
0100
0000
0010
0000
,
0001
0000
0001
0000
,
1000
0000
1000
0000
,
0001
0000
2000
0000
,
0000
0000
3000
0000
,
0010
0000
0100
0000
,
0010
0000
0001
0000
,
0010
0010
0010
0010
,
1000
1000
1000
1000
,
0100
0100
0100
0100
,
2000
0000
3000
0000
,
1000
1000
1000
0001
,
0001
0001
0010
0010
,
0010
0100
0100
0100
,
1000
1000
1000
0100
,
0100
0100
0001
0001
,
0001
0010
0010
0010
,
2000
0000
3000
0000
,
0010
0000
1000
0000
,
0001
0001
0001
0001
,
0010
0010
0010
0010
,
0010
1000
1000
1000
,
0100
0100
0100
0100
,
0000
0100
0000
0100
,
0000
0001
0000
0010
,
0000
1000
0000
1000
,
0000
2000
0000
3000
,
0000
0000
0001
0000
,
1000
0000
0100
0000
,
0010
0000
0010
0000
,
0100
0000
0100
0000
,
0001
0000
0001
0000
,
0020
0000
0000
0000
,
0000
0000
0030
0000
,
1001
1000
1000
1000
,
1000
0010
0010
0010
,
0010
1000
1000
1000
,
0010
0010
0010
0001
,
0001
0001
0001
1000
,
1000
1000
1000
2000
,
0000
0000
0000
3000
,
0001
0000
1000
0000
,
0100
0000
0001
0000
,
0010
0000
1000
0000
,
1000
0000
0010
0000
,
1000
0000
0010
0000
,
1000
0000
0010
0000
,
0001
0001
0001
0002
,
0000
0000
0003
0000
,
2000
0000
0000
0000
,
3000
0000
1000
0000
,
0001
0000
1000
0000
,
0100
0000
0010
0000
,
0001
0000
0010
0000
,
1000
0000
0010
0000
,
1000
0000
0100
0000
,
0100
0000
0001
0000
,
0001
0000
0010
0000
,
2000
0000
0000
0000
,
0000
3000
0000
0000
;
