#VERSION:0.83;
#TITLE:onlymp3.to - Clic clic pan pan-HcT1MJurh4s-192k-1696867042;
#SUBTITLE:;
#ARTIST:Dancing Monkeys Project;
#TITLETRANSLIT:;
#SUBTITLETRANSLIT:;
#ARTISTTRANSLIT:;
#GENRE:;
#ORIGIN:;
#CREDIT:Gorilla v1.1.3 (Dancing Monkeys v1.06);
#BANNER:images.png;
#BACKGROUND:artworks-pWR3VJ2BUnFP-0-t500x500.png;
#PREVIEWVID:;
#JACKET:;
#CDIMAGE:;
#DISCIMAGE:;
#LYRICSPATH:;
#CDTITLE:;
#MUSIC:onlymp3.to - Clic clic pan pan-HcT1MJurh4s-192k-1696867042.mp3;
#OFFSET:-1.930750;
#SAMPLESTART:47.395336;
#SAMPLELENGTH:12.000000;
#SELECTABLE:YES;
#BPMS:0.000=131.971;
#STOPS:;
#DELAYS:;
#WARPS:;
#TIMESIGNATURES:0.000=4=4;
#TICKCOUNTS:0.000=4;
#COMBOS:0.000=1;
#SPEEDS:0.000=2.000=0.000=0;
#SCROLLS:0.000=1.000;
#FAKES:;
#LABELS:0.000=Song Start;
#BGCHANGES:;
#KEYSOUNDS:;
#ATTACKS:
;

//---------------dance-single - Basic----------------
#NOTEDATA:;
#CHARTNAME:Basic;
#STEPSTYPE:dance-single;
#DESCRIPTION:Basic;
#CHARTSTYLE:;
#DIFFICULTY:Easy;
#METER:6;
#RADARVALUES:0.259666,0.268843,0.019033,0.142748,0.000000,191.000000,189.000000,2.000000,15.000000,0.000000,0.000000,0.000000,0.000000,0.000000,0.259666,0.268843,0.019033,0.142748,0.000000,191.000000,189.000000,2.000000,15.000000,0.000000,0.000000,0.000000,0.000000,0.000000;
#CREDIT:Basic;
#NOTES:
// measure 0
0020
0000
0000
0000
,  // measure 1
2030
0000
0000
0000
,  // measure 2
3002
0000
0000
0003
,  // measure 3
1000
0010
0001
0100
,  // measure 4
0010
1000
0100
0010
,  // measure 5
1000
0010
1000
0100
,  // measure 6
0100
2002
0000
0000
,  // measure 7
0000
3003
0001
0100
,  // measure 8
1000
0010
1000
0010
,  // measure 9
0100
0001
1000
0100
,  // measure 10
0001
0010
1000
0100
,  // measure 11
1000
0100
0010
1000
,  // measure 12
1000
0001
0100
0010
,  // measure 13
1000
0001
0100
0010
,  // measure 14
1000
0010
0100
0001
,  // measure 15
1000
0100
0010
0001
,  // measure 16
1000
0010
0010
0100
,  // measure 17
0100
0010
0100
0001
,  // measure 18
1000
0010
0100
1000
,  // measure 19
0001
0100
0010
1000
,  // measure 20
0100
0001
1000
0100
,  // measure 21
0001
0100
0010
1000
,  // measure 22
0001
0100
0010
0100
,  // measure 23
0001
0100
0010
1000
,  // measure 24
0010
0100
0001
0100
,  // measure 25
0001
0100
0010
1000
,  // measure 26
0020
0000
0000
0030
,  // measure 27
0100
0010
1000
0100
,  // measure 28
1000
0001
0100
0010
,  // measure 29
1000
0100
0010
1000
,  // measure 30
0100
1000
0010
1000
,  // measure 31
2002
0000
0000
3003
,  // measure 32
0200
0000
0300
0100
,  // measure 33
2000
3000
0020
0000
,  // measure 34
0000
0000
0030
1000
,  // measure 35
0001
1000
0100
1000
,  // measure 36
0010
0100
0100
1000
,  // measure 37
0001
0100
1000
0001
,  // measure 38
0100
0010
0001
1000
,  // measure 39
0100
1000
0010
0001
,  // measure 40
1000
0010
1000
0100
,  // measure 41
0010
0100
0010
1000
,  // measure 42
0100
0010
0100
1000
,  // measure 43
0020
0000
0000
0030
,  // measure 44
0200
0000
0000
0300
,  // measure 45
0002
0000
0000
0003
,  // measure 46
2000
0000
0000
3000
,  // measure 47
1000
0001
0010
1000
,  // measure 48
1000
0001
0100
1000
,  // measure 49
0001
1000
0010
0001
,  // measure 50
1000
0010
0100
1000
,  // measure 51
1000
0001
0010
1000
,  // measure 52
1000
0001
0100
1000
,  // measure 53
0001
1000
0010
1000
,  // measure 54
0001
1000
0001
0100
,  // measure 55
0001
0100
0010
1000
,  // measure 56
0010
0001
0100
0000
;

//---------------dance-single - Standard----------------
#NOTEDATA:;
#CHARTNAME:Standard;
#STEPSTYPE:dance-single;
#DESCRIPTION:Standard;
#CHARTSTYLE:;
#DIFFICULTY:Medium;
#METER:7;
#RADARVALUES:0.417369,0.444899,0.095166,0.028550,0.000000,307.000000,297.000000,10.000000,3.000000,0.000000,0.000000,0.000000,0.000000,0.000000,0.417369,0.444899,0.095166,0.028550,0.000000,307.000000,297.000000,10.000000,3.000000,0.000000,0.000000,0.000000,0.000000,0.000000;
#CREDIT:Standard;
#NOTES:
0200
0000
0000
0000
0000
0000
0000
0000
,
1000
0000
0000
0000
0000
0000
0000
0000
,
0001
0000
0000
0000
0000
0000
0000
0000
,
0301
1000
0100
0000
1000
0100
0010
0000
,
1000
0000
0010
1000
0010
0100
0010
1000
,
0001
0001
1000
0000
1000
0000
0010
0000
,
0001
1000
0020
0000
1000
0000
0010
0000
,
0001
0000
1030
0000
1000
0000
0010
0000
,
1000
0100
0010
0001
0001
0100
0002
0000
,
0001
0000
1000
0000
1000
0000
0010
0000
,
0003
1000
0100
0000
1000
0100
0010
0000
,
0001
0000
0010
0001
0010
0001
1000
0010
,
1000
0000
0010
1000
0010
1000
0001
0010
,
0001
0000
0010
0001
0010
0001
1000
0010
,
1000
0100
0010
0100
0010
0100
1000
0010
,
0001
0000
0010
0001
0010
0001
1000
0010
,
1000
0000
0100
1000
0100
1000
0001
0100
,
0001
0000
0100
0001
0100
0001
1000
0100
,
0000
0001
0100
0000
0010
1000
0100
0100
,
0001
0100
0001
0000
0100
0010
0001
0000
,
0011
0000
0100
0000
0010
0001
0100
0010
,
0001
0100
0001
0000
0100
0010
0001
0000
,
1100
0000
1000
0001
1000
0010
1000
0001
,
0001
0100
0001
0000
0100
0010
0001
0000
,
1010
0000
0010
0100
0010
1000
0010
0001
,
0001
0100
0001
0000
0100
0010
0020
0000
,
1000
0000
0000
0000
0000
0000
0030
0000
,
1010
0000
0010
0100
0010
1000
0010
0001
,
1000
0001
0100
0010
0100
0010
0100
0010
,
0001
0100
0001
0000
0100
0010
0001
0100
,
1000
0100
1000
0100
0010
0100
0100
1000
,
0001
0001
1000
0000
1000
0000
0010
0000
,
0001
1000
0100
1000
0000
0000
0001
0000
,
1000
0010
0000
0000
0002
0000
1000
0000
,
1000
0000
0000
0000
0003
0000
0001
0000
,
1001
0000
0010
1000
0001
0100
0010
0000
,
1100
0000
0001
1000
0100
0000
0101
0000
,
0001
0000
0010
0100
1000
0001
0010
0000
,
0011
0000
0100
0000
0010
0001
0100
0010
,
0001
0100
0001
0000
0100
0010
0001
0000
,
1010
0000
0010
0100
0010
1000
0010
0001
,
0001
0100
0001
0000
0100
0010
0001
0000
,
1100
0000
1000
0001
1000
0010
0002
0000
,
1000
0000
0000
0000
0000
0000
0000
0000
,
0002
0000
0000
0000
0000
0000
0000
0000
,
1000
0000
0000
0000
0000
0000
0000
0000
,
0001
0000
0000
0000
0000
0000
0003
0000
,
0001
0000
0010
0001
0010
0001
1000
0010
,
1000
0000
0010
1000
0010
1000
0001
0010
,
0001
0000
0100
0001
0100
0001
1000
0100
,
1000
0100
0010
0100
0010
0100
1000
0010
,
0001
0000
0010
0001
0010
0001
1000
0010
,
0001
0000
0010
0001
0010
0001
1000
0010
,
1000
0000
0100
1000
0100
1000
0001
0100
,
0001
0001
1000
0000
1000
0000
0010
0000
,
1000
0000
0000
0000
0000
0000
0000
0000
,
;

//---------------dance-single - Heavy----------------
#NOTEDATA:;
#CHARTNAME:Heavy;
#STEPSTYPE:dance-single;
#DESCRIPTION:Heavy;
#CHARTSTYLE:;
#DIFFICULTY:Hard;
#METER:8;
#RADARVALUES:0.485344,0.448944,0.104682,0.038066,0.000000,357.000000,346.000000,11.000000,4.000000,0.000000,0.000000,0.000000,0.000000,0.000000,0.485344,0.448944,0.104682,0.038066,0.000000,357.000000,346.000000,11.000000,4.000000,0.000000,0.000000,0.000000,0.000000,0.000000;
#CREDIT:Heavy;
#NOTES:
0200
0000
0000
0000
1000
0000
0000
0000
,
0001
0000
0000
0000
0001
0000
0000
0000
,
0001
0000
0000
0000
0001
0000
0000
0000
,
0301
0010
0001
0010
0100
1000
0001
1000
,
0001
1000
0100
0010
0001
0010
0001
0100
,
0001
0001
0010
0010
0010
0100
0010
0001
,
0001
0010
0002
0000
0100
0000
0001
0000
,
0001
0000
0013
0010
0010
0100
0010
0001
,
0001
1000
0000
0010
0010
0100
2000
0000
,
0001
0000
0010
0000
0010
0000
0010
0000
,
3001
0010
0001
0010
0100
1000
0001
1000
,
0001
1000
0010
0100
0001
0010
0100
0010
,
1000
0001
0010
0100
1000
0010
0100
0010
,
0001
1000
0100
0010
0001
0100
0010
0100
,
1000
0010
1000
0000
0001
0100
0001
0100
,
0001
1000
0010
0100
0001
0010
0100
0010
,
1000
0001
0010
0100
1000
0010
0100
0010
,
1000
0001
0010
0100
1000
0010
0100
0010
,
0001
0100
0001
0001
1000
0001
0100
0100
,
0001
1000
0001
0100
0010
0100
0010
0000
,
1100
0000
0100
0000
1000
0001
0010
0100
,
0001
1000
0001
0100
0010
0100
0010
0000
,
1100
0000
0001
1000
0001
1000
0010
0100
,
0001
1000
0001
0100
0010
0100
0010
0000
,
1010
0000
0100
0001
1000
0100
1000
0010
,
0001
1000
0001
0100
0010
0100
2000
0000
,
1000
0000
0000
0000
1000
0000
3000
0000
,
1010
0000
0100
0001
1000
0100
1000
0010
,
1000
0010
1000
0100
1000
0001
1000
0100
,
0001
1000
0001
0100
0010
0100
0010
0000
,
0110
0000
1000
0100
1000
0100
0100
1000
,
0001
0001
0010
0010
0010
0100
0010
0001
,
1000
0001
0100
0001
0000
0000
0010
0010
,
0001
1000
0010
0100
0020
0000
0010
0000
,
1000
0000
0000
0000
0030
1000
0010
0000
,
0011
0000
0001
0100
0001
0100
0010
0000
,
1001
0000
0100
1000
0100
0000
0110
0000
,
0001
0000
1000
0001
1000
0001
0100
0000
,
1100
0000
0100
0000
1000
0001
0010
0100
,
0001
1000
0001
0100
0010
0100
0010
0000
,
1010
0000
0100
0001
1000
0100
1000
0010
,
0001
1000
0001
0100
0010
0100
0010
0000
,
1100
0000
0001
1000
0001
1000
0002
0000
,
1000
0000
0000
0000
1000
0000
0000
0000
,
0023
0000
0000
0000
0001
0000
0000
0000
,
1000
0000
0000
0000
1000
0000
0000
0000
,
1000
0000
0000
0000
1000
0000
0030
0000
,
0001
1000
0010
0100
0001
0010
0100
0010
,
0001
1000
0010
0100
0001
0010
0100
0010
,
0001
1000
0100
0010
0001
0100
0010
0100
,
1000
0010
1000
0000
0001
0100
0001
0100
,
0001
1000
0010
0100
0001
0010
0100
0010
,
0001
1000
0100
0010
0001
0100
0010
0100
,
0001
1000
0100
0010
0001
0100
0010
0100
,
0001
0001
0010
0010
0010
0100
0010
0001
,
1000
0001
0000
0000
1000
0000
0000
0000
,
;
