#VERSION:0.83;
#TITLE:Circles;
#SUBTITLE:;
#ARTIST:Post Malone;
#TITLETRANSLIT:;
#SUBTITLETRANSLIT:;
#ARTISTTRANSLIT:;
#GENRE:;
#ORIGIN:;
#CREDIT:;
#BANNER:;
#BACKGROUND:;
#PREVIEWVID:;
#JACKET:;
#CDIMAGE:;
#DISCIMAGE:;
#LYRICSPATH:;
#CDTITLE:;
#MUSIC:Circles.mp3;
#OFFSET:0.000000;
#SAMPLESTART:0.000000;
#SAMPLELENGTH:12.000000;
#SELECTABLE:YES;
#BPMS:0.000=132.000;
#STOPS:;
#DELAYS:0.000=13.000;
#WARPS:;
#TIMESIGNATURES:0.000=4=4;
#TICKCOUNTS:0.000=4;
#COMBOS:0.000=1;
#SPEEDS:0.000=1.000=0.000=0;
#SCROLLS:0.000=1.000;
#FAKES:;
#LABELS:0.000=Song Start;
#BGCHANGES:;
#KEYSOUNDS:;
#ATTACKS:
;

//---------------dance-single - ----------------
#NOTEDATA:;
#CHARTNAME:;
#STEPSTYPE:dance-single;
#DESCRIPTION:;
#CHARTSTYLE:;
#DIFFICULTY:Easy;
#METER:1;
#RADARVALUES:0.270959,0.350364,0.000000,0.061984,0.000000,153.000000,153.000000,0.000000,5.000000,0.000000,0.000000,0.000000,0.000000,0.000000,0.270959,0.350364,0.000000,0.061984,0.000000,153.000000,153.000000,0.000000,5.000000,0.000000,0.000000,0.000000,0.000000,0.000000;
#CREDIT:;
#NOTES:
// measure 0
0000
0000
0000
0000
,  // measure 1
0000
0010
0000
1000
,  // measure 2
1000
1000
1000
0000
,  // measure 3
0002
0000
0000
0000
,  // measure 4
0000
0000
0003
0000
,  // measure 5
0000
1000
1000
1000
,  // measure 6
0000
0001
0000
0010
,  // measure 7
0000
0000
0010
0010
,  // measure 8
0000
2000
0000
0000
,  // measure 9
0000
0000
0000
0000
,  // measure 10
3000
0000
0001
0001
,  // measure 11
0001
0000
1000
0000
,  // measure 12
1000
0000
0010
0000
,  // measure 13
0100
0000
0001
0000
,  // measure 14
0010
0000
1000
0000
,  // measure 15
0010
0000
0100
0000
,  // measure 16
0001
0000
0010
0000
,  // measure 17
1000
0000
0010
0000
,  // measure 18
0001
0000
0010
0000
,  // measure 19
1000
0000
0010
0000
,  // measure 20
0100
0000
1000
0000
,  // measure 21
0010
0000
0001
0000
,  // measure 22
0100
0000
0010
0000
,  // measure 23
1000
0000
0010
0000
,  // measure 24
0100
0000
0001
0000
,  // measure 25
0010
0000
1000
0000
,  // measure 26
0010
0000
0100
0000
,  // measure 27
1000
0000
0010
0000
,  // measure 28
0100
0000
0001
0000
,  // measure 29
0010
0000
1000
0000
,  // measure 30
0010
0000
1000
0000
,  // measure 31
0010
0000
0100
0000
,  // measure 32
1000
0000
0010
0000
,  // measure 33
0100
0000
0001
0000
,  // measure 34
0010
0000
1000
0000
,  // measure 35
0010
0000
0100
0000
,  // measure 36
0001
0000
0010
0000
,  // measure 37
1000
0000
0010
0000
,  // measure 38
0100
0000
0001
0000
,  // measure 39
0010
0000
1000
0000
,  // measure 40
0010
0000
0100
0000
,  // measure 41
0001
0000
0010
0000
,  // measure 42
1000
0000
0010
0000
,  // measure 43
0100
0000
0001
0000
,  // measure 44
0010
0000
1000
0000
,  // measure 45
0020
0030
0000
1000
,  // measure 46
1000
1000
0000
0020
,  // measure 47
0000
0000
0000
0000
,  // measure 48
0000
0030
0000
0001
,  // measure 49
0000
1000
0000
0010
,  // measure 50
0000
1000
0000
0010
,  // measure 51
0000
0100
0000
0001
,  // measure 52
0000
0010
0000
1000
,  // measure 53
0000
0010
0000
0100
,  // measure 54
0000
0001
0000
0010
,  // measure 55
0000
1000
0000
0010
,  // measure 56
0000
1000
0000
0100
,  // measure 57
0000
0010
0000
0001
,  // measure 58
0000
1000
0000
0100
,  // measure 59
0000
0010
0000
1000
,  // measure 60
0000
0010
0000
0100
,  // measure 61
0000
0001
0000
0010
,  // measure 62
0000
1000
0000
0010
,  // measure 63
0000
0100
0000
0001
,  // measure 64
0000
0010
0000
1000
,  // measure 65
0000
0010
0000
0100
,  // measure 66
0000
1000
0000
0010
,  // measure 67
0000
1000
0000
0100
,  // measure 68
0000
0010
0000
0001
,  // measure 69
0000
0010
0000
1000
,  // measure 70
0000
0010
0000
0100
,  // measure 71
0000
0000
1000
0000
,  // measure 72
2000
0000
3000
0000
,  // measure 73
0001
0000
0000
1000
,  // measure 74
0000
0010
0000
1000
,  // measure 75
0000
0010
0000
0000
,  // measure 76
1000
0000
0000
0001
,  // measure 77
0000
0010
0000
1000
,  // measure 78
0000
0010
0000
1000
,  // measure 79
1000
1000
1000
0000
,  // measure 80
0000
0001
0001
0001
;
