#VERSION:0.83;
#TITLE:Chop Away At My Heart ;
#SUBTITLE:Milo Murphy's Law;
#ARTIST:Disney;
#TITLETRANSLIT:;
#SUBTITLETRANSLIT:;
#ARTISTTRANSLIT:;
#GENRE:;
#ORIGIN:;
#CREDIT:Gorilla v1.1.3 (Dancing Monkeys v1.06);
#BANNER:images.png;
#BACKGROUND:milo-murphys-law.png;
#PREVIEWVID:;
#JACKET:;
#CDIMAGE:;
#DISCIMAGE:;
#LYRICSPATH:;
#CDTITLE:;
#MUSIC:Chop Away At My Heart (Music Video) Milo Murphy's Law Disney XD.mp3;
#OFFSET:-0.587664;
#SAMPLESTART:49.762447;
#SAMPLELENGTH:12.000000;
#SELECTABLE:YES;
#BPMS:0.000=126.894;
#STOPS:;
#DELAYS:;
#WARPS:;
#TIMESIGNATURES:0.000=4=4;
#TICKCOUNTS:0.000=4;
#COMBOS:0.000=1;
#SPEEDS:0.000=1.000=0.000=0;
#SCROLLS:0.000=1.000;
#FAKES:;
#LABELS:0.000=Song Start;
#BGCHANGES:;
#KEYSOUNDS:;
#ATTACKS:
;

//---------------dance-single - Basic----------------
#NOTEDATA:;
#CHARTNAME:Basic;
#STEPSTYPE:dance-single;
#DESCRIPTION:Basic;
#CHARTSTYLE:;
#DIFFICULTY:Easy;
#METER:3;
#RADARVALUES:0.137891,0.158750,0.008937,0.044687,0.000000,108.000000,107.000000,1.000000,5.000000,0.000000,0.000000,0.000000,0.000000,0.000000,0.137891,0.158750,0.008937,0.044687,0.000000,108.000000,107.000000,1.000000,5.000000,0.000000,0.000000,0.000000,0.000000,0.000000;
#CREDIT:Basic;
#NOTES:
// measure 0
0001
0000
0000
1000
,  // measure 1
0000
0000
0010
0000
,  // measure 2
0000
0001
0000
1000
,  // measure 3
0000
1000
1000
1000
,  // measure 4
0000
0001
0001
0001
,  // measure 5
0000
0100
0100
0100
,  // measure 6
0000
1000
1000
1000
,  // measure 7
0000
0001
0000
0100
,  // measure 8
0000
0001
0000
0010
,  // measure 9
0000
1000
0000
0010
,  // measure 10
0000
2000
0000
3000
,  // measure 11
0000
1001
0000
0010
,  // measure 12
0000
1000
0000
0010
,  // measure 13
0000
0001
0000
1000
,  // measure 14
0000
0001
0000
0010
,  // measure 15
0000
0001
0000
0010
,  // measure 16
0000
1000
0000
0100
,  // measure 17
0000
0010
0000
0010
,  // measure 18
0000
0100
0000
0100
,  // measure 19
0000
1000
0000
0010
,  // measure 20
0000
0001
0000
0010
,  // measure 21
0000
1000
0000
0010
,  // measure 22
0000
1000
0000
0100
,  // measure 23
0000
0010
0000
0001
,  // measure 24
0000
1000
0000
0100
,  // measure 25
0000
1000
0000
0100
,  // measure 26
0000
0010
0000
1000
,  // measure 27
0000
0001
0000
0010
,  // measure 28
0000
0001
0000
1000
,  // measure 29
0000
0010
0000
0100
,  // measure 30
0000
0001
0000
0100
,  // measure 31
0000
1000
0000
0001
,  // measure 32
0000
1000
0000
0010
,  // measure 33
0000
0100
0000
0010
,  // measure 34
0000
0001
0000
0100
,  // measure 35
0000
1000
1000
1000
,  // measure 36
0000
0010
0010
0010
,  // measure 37
0000
0100
0000
0100
,  // measure 38
0000
1000
0000
1000
,  // measure 39
0000
0010
0000
0010
,  // measure 40
0000
0100
0000
0100
,  // measure 41
0000
0010
0000
0010
,  // measure 42
0000
0100
0000
0100
,  // measure 43
0000
1000
1000
1000
,  // measure 44
2000
0000
0000
3000
,  // measure 45
0000
0010
0010
0010
,  // measure 46
0010
0020
0000
0030
,  // measure 47
0000
0100
0100
0100
,  // measure 48
0200
0000
0000
0000
,  // measure 49
0300
0010
0010
0010
,  // measure 50
0002
0000
0000
0003
;
