#TITLE:Choices1 (song by marluxiam);
#SUBTITLE:;
#ARTIST:Dancing Monkeys Project;
#TITLETRANSLIT:;
#SUBTITLETRANSLIT:;
#ARTISTTRANSLIT:;
#GENRE:;
#CREDIT:Gorilla v1.1.3 (Dancing Monkeys v1.06);
#BANNER:tumblr_inline_pnswzmiikL1smyu0v_540.png;
#BACKGROUND:spy-x-family-anya-forger-hd-wallpaper-preview.png;
#LYRICSPATH:;
#CDTITLE:;
#MUSIC:Choices1 (song by marluxiam).mp3;
#OFFSET:-0.215578;
#SAMPLESTART:42.798340;
#SAMPLELENGTH:12.000000;
#SELECTABLE:YES;
#BPMS:0.000000=140.901993
;
#STOPS:
;
#BGCHANGES:;
#KEYSOUNDS:;
#ATTACKS:;

//---------------dance-single - Basic----------------
#NOTES:
     dance-single:
     Basic:
     Easy:
     4:
     0.188506,0.167442,0.000000,0.017772,0.000000,297.000000,297.000000,0.000000,4.000000,0.000000,0.000000,0.188506,0.167442,0.000000,0.017772,0.000000,297.000000,297.000000,0.000000,4.000000,0.000000,0.000000:
0001
1000
0100
0000
,
1000
0100
0010
0000
,
0001
1000
0100
0000
,
1000
0001
0010
0000
,
1000
0001
0100
0000
,
1000
0100
0010
0000
,
0001
1000
0100
0000
,
0001
1000
0010
0000
,
1000
0001
0100
0010
,
1000
0100
0010
0000
,
1000
0001
0100
0010
,
1000
0010
1000
0100
,
1000
0001
0100
0010
,
1000
0100
0010
0000
,
1000
0001
0100
0010
,
1000
0010
0001
0000
,
1000
0001
1000
0001
,
1000
0100
0020
0000
,
0000
0000
0000
0000
,
0000
0030
0010
0001
,
1000
0001
0100
0010
,
1000
0100
0010
0000
,
1000
0001
0100
0010
,
0001
0010
0001
0010
,
1000
0001
0100
0010
,
1000
0100
0010
0000
,
1000
0001
0100
0010
,
1000
0010
1000
0100
,
1000
0100
0010
0100
,
0001
0100
0020
0030
,
0001
0001
0100
0010
,
1000
0001
0100
0010
,
0001
1000
0100
0010
,
1000
0100
0010
0000
,
1000
0001
0100
0001
,
1000
0010
0001
0100
,
1000
0001
0100
0010
,
1000
0100
0010
0001
,
1000
0001
0100
0010
,
1000
0100
0010
1000
,
0001
0001
0100
0010
,
1000
0100
0010
0000
,
1000
0001
0100
0010
,
1000
0010
0100
0010
,
0001
0001
0100
0100
,
1000
1000
0000
0000
,
0100
0100
0010
0010
,
0001
0001
0010
0010
,
0001
0001
1000
1000
,
1000
0100
0100
0100
,
1000
0001
1000
0010
,
1000
0010
0001
0100
,
1000
0001
0010
1000
,
0010
0100
0010
0001
,
1000
0001
0100
0010
,
1000
0001
0010
0100
,
0001
1000
0010
0100
,
1000
0100
0010
0001
,
1000
0001
0100
0010
,
1000
0010
0100
0000
,
1000
0001
0010
0001
,
1000
0100
0010
0001
,
1000
0001
0100
0010
,
1000
0010
1000
0100
,
1000
0001
0100
0010
,
1000
0100
0010
0000
,
1000
0001
0100
0010
,
1000
0010
1000
0100
,
2000
0000
0000
3000
,
1000
1000
0020
0000
,
0000
0030
1000
0000
,
0001
0000
0001
0000
,
1000
0000
0100
0000
,
1000
1000
0010
0010
,
1000
1000
0100
0100
,
1000
0010
1000
0100
,
0010
0001
0100
1000
,
1000
0010
0000
0100
,
1000
0001
1000
0010
,
0001
0100
0010
1000
,
1000
0010
1000
1000
,
0001
0001
0010
1000
,
0001
0100
0001
0010
,
1000
0010
0100
0010
;

//---------------dance-single - Basic----------------
#NOTES:
     dance-single:
     :
     Beginner:
     4:
     0.100917,0.093023,0.000000,0.017772,0.000000,159.000000,159.000000,0.000000,4.000000,0.000000,0.000000,0.100917,0.093023,0.000000,0.017772,0.000000,159.000000,159.000000,0.000000,4.000000,0.000000,0.000000:
// measure 0
0001
0000
0100
0000
,  // measure 1
1000
0000
0010
0000
,  // measure 2
0001
0000
0100
0000
,  // measure 3
1000
0000
0010
0000
,  // measure 4
1000
0000
0100
0000
,  // measure 5
1000
0000
0010
0000
,  // measure 6
0001
0000
0100
0000
,  // measure 7
0001
0000
0010
0000
,  // measure 8
1000
0000
0100
0000
,  // measure 9
1000
0000
0010
0000
,  // measure 10
1000
0000
0100
0000
,  // measure 11
1000
0000
0010
0000
,  // measure 12
1000
0000
0100
0000
,  // measure 13
1000
0000
0010
0000
,  // measure 14
1000
0000
0100
0000
,  // measure 15
1000
0000
0001
0000
,  // measure 16
0010
0000
0100
0000
,  // measure 17
1000
0000
0020
0000
,  // measure 18
0000
0000
0000
0000
,  // measure 19
0000
0030
0000
0100
,  // measure 20
0000
0001
0000
0010
,  // measure 21
0000
0100
0000
0000
,  // measure 22
1000
0000
0100
0000
,  // measure 23
0001
0000
0001
0000
,  // measure 24
1000
0000
0100
0000
,  // measure 25
1000
0000
0010
0000
,  // measure 26
1000
0000
0100
0000
,  // measure 27
1000
0000
0010
0000
,  // measure 28
1000
0000
0010
0000
,  // measure 29
0001
0000
0020
0030
,  // measure 30
0000
0001
0000
0010
,  // measure 31
0000
0001
0000
0010
,  // measure 32
0000
1000
0000
0010
,  // measure 33
0000
0100
0000
0010
,  // measure 34
0000
0001
0000
0001
,  // measure 35
0000
0010
0000
0100
,  // measure 36
0000
0001
0000
0010
,  // measure 37
0000
0100
0000
0001
,  // measure 38
0000
0001
0000
0010
,  // measure 39
0000
0100
0000
1000
,  // measure 40
0000
0001
0000
0010
,  // measure 41
0000
0100
0000
0000
,  // measure 42
1000
0000
0100
0000
,  // measure 43
1000
0000
0100
0000
,  // measure 44
0001
0000
0100
0000
,  // measure 45
1000
0000
0010
0000
,  // measure 46
0100
0000
0010
0000
,  // measure 47
0001
0000
0010
0000
,  // measure 48
0001
0000
0100
0000
,  // measure 49
1000
0000
0010
0000
,  // measure 50
1000
0000
0010
0000
,  // measure 51
1000
0000
0001
0000
,  // measure 52
1000
0000
0100
0000
,  // measure 53
0001
0000
0100
0000
,  // measure 54
1000
0000
0100
0000
,  // measure 55
1000
0000
0010
0000
,  // measure 56
0001
0000
0010
0000
,  // measure 57
1000
0000
0010
0000
,  // measure 58
1000
0000
0100
0000
,  // measure 59
1000
0000
0100
0000
,  // measure 60
1000
0000
0010
0000
,  // measure 61
1000
0000
0010
0000
,  // measure 62
1000
0000
0100
0000
,  // measure 63
0001
0000
0010
0000
,  // measure 64
1000
0000
0100
0000
,  // measure 65
1000
0000
0010
0000
,  // measure 66
1000
0000
0100
0000
,  // measure 67
0001
0000
0100
0000
,  // measure 68
2000
0000
0000
3000
,  // measure 69
0000
0020
0000
0000
,  // measure 70
0000
0000
0030
0000
,  // measure 71
0001
0000
0001
0000
,  // measure 72
1000
0000
0100
0000
,  // measure 73
1000
0000
0010
0000
,  // measure 74
1000
0000
0100
0000
,  // measure 75
1000
0000
1000
0000
,  // measure 76
0010
0000
0100
0000
,  // measure 77
1000
0000
0000
0100
,  // measure 78
0000
0001
0000
0010
,  // measure 79
0000
0100
0000
1000
,  // measure 80
0000
0010
0000
1000
,  // measure 81
0000
0001
0000
1000
,  // measure 82
0000
0100
0000
1000
,  // measure 83
0000
0100
0000
0010
;
