#TITLE:Changes;
#SUBTITLE:;
#ARTIST:Tupac;
#TITLETRANSLIT:;
#SUBTITLETRANSLIT:;
#ARTISTTRANSLIT:;
#GENRE:;
#CREDIT:;
#BANNER:;
#BACKGROUND:;
#LYRICSPATH:;
#CDTITLE:;
#MUSIC:Changes.mp3;
#OFFSET:0.000000;
#SAMPLESTART:0.000000;
#SAMPLELENGTH:12.000000;
#SELECTABLE:YES;
#BPMS:0.000000=132.000000
;
#STOPS:-0.020833=13.000000
;
#BGCHANGES:;
#KEYSOUNDS:;
#ATTACKS:;

//---------------dance-single - ----------------
#NOTES:
     dance-single:
     :
     Easy:
     1:
     0.141751,0.136282,0.000000,0.098001,0.000000,81.000000,81.000000,0.000000,8.000000,0.000000,0.000000,0.141751,0.136282,0.000000,0.098001,0.000000,81.000000,81.000000,0.000000,8.000000,0.000000,0.000000:
// measure 0
0000
0000
1000
1000
,  // measure 1
0000
0010
0000
0000
,  // measure 2
1000
0000
0100
0000
,  // measure 3
0010
0000
1000
0000
,  // measure 4
0010
0000
0100
0000
,  // measure 5
0001
0000
0010
0000
,  // measure 6
1000
0000
0010
0000
,  // measure 7
0100
0000
0010
0000
,  // measure 8
1000
0000
0010
0000
,  // measure 9
0100
0000
0001
0000
,  // measure 10
0010
0000
1000
0000
,  // measure 11
0010
0000
0100
0000
,  // measure 12
1000
0000
0010
0000
,  // measure 13
0100
0000
0001
0000
,  // measure 14
0010
0000
1000
0000
,  // measure 15
0010
0000
0100
0000
,  // measure 16
1000
0000
0010
0000
,  // measure 17
0100
0000
0001
0000
,  // measure 18
0010
0000
1000
0000
,  // measure 19
0010
0000
0100
0000
,  // measure 20
1000
0000
0010
0000
,  // measure 21
1000
0000
0010
0000
,  // measure 22
0100
0000
0001
0000
,  // measure 23
0010
0000
1000
0000
,  // measure 24
0010
0000
0100
0000
,  // measure 25
2000
0000
3000
0000
,  // measure 26
0100
0000
0001
0000
,  // measure 27
0010
0000
2000
3000
,  // measure 28
0000
0001
0000
0001
,  // measure 29
0000
1000
0000
0002
,  // measure 30
0000
0003
0000
0100
,  // measure 31
0000
1000
0000
0010
,  // measure 32
0000
2000
0000
3000
,  // measure 33
0000
0100
0000
0001
,  // measure 34
0000
0010
0000
1000
,  // measure 35
0000
0010
0000
0100
,  // measure 36
0000
1000
0000
0002
,  // measure 37
0000
0003
0000
0001
,  // measure 38
0000
0010
0000
1000
,  // measure 39
0000
0002
0000
0003
,  // measure 40
0000
1000
0000
0010
,  // measure 41
0000
0100
0000
2000
,  // measure 42
3000
0000
0001
0000
,  // measure 43
0010
0000
2000
0000
,  // measure 44
0000
0000
3000
0000
;
