#VERSION:0.83;
#TITLE:Change;
#SUBTITLE:;
#ARTIST:Bleach;
#TITLETRANSLIT:;
#SUBTITLETRANSLIT:;
#ARTISTTRANSLIT:;
#GENRE:;
#ORIGIN:;
#CREDIT:Gorilla v1.1.3 (Dancing Monkeys v1.06);
#BANNER:;
#BACKGROUND:;
#PREVIEWVID:;
#JACKET:;
#CDIMAGE:;
#DISCIMAGE:;
#LYRICSPATH:;
#CDTITLE:;
#MUSIC:OPENING 12 BLEACH chAngE by miwa VIZ.mp3;
#OFFSET:-0.294921;
#SAMPLESTART:36.671337;
#SAMPLELENGTH:12.000000;
#SELECTABLE:YES;
#BPMS:0.000=164.942;
#STOPS:;
#DELAYS:;
#WARPS:;
#TIMESIGNATURES:0.000=4=4;
#TICKCOUNTS:0.000=4;
#COMBOS:0.000=1;
#SPEEDS:0.000=1.000=0.000=0;
#SCROLLS:0.000=1.000;
#FAKES:;
#LABELS:0.000=Song Start;
#BGCHANGES:;
#KEYSOUNDS:;
#ATTACKS:
;

//---------------dance-single - Basic----------------
#NOTEDATA:;
#CHARTNAME:Basic;
#STEPSTYPE:dance-single;
#DESCRIPTION:Basic;
#CHARTSTYLE:;
#DIFFICULTY:Easy;
#METER:3;
#RADARVALUES:0.187528,0.289449,0.000000,0.052508,0.000000,125.000000,125.000000,0.000000,5.000000,0.000000,0.000000,0.000000,0.000000,0.000000,0.187528,0.289449,0.000000,0.052508,0.000000,125.000000,125.000000,0.000000,5.000000,0.000000,0.000000,0.000000,0.000000,0.000000;
#CREDIT:Basic;
#NOTES:
// measure 0
0000
0000
1000
0000
,  // measure 1
0001
0001
0010
0001
,  // measure 2
0001
0000
0100
0000
,  // measure 3
1000
0000
0001
0001
,  // measure 4
0001
0001
1000
0000
,  // measure 5
0010
0010
0010
0010
,  // measure 6
0010
0000
0001
0000
,  // measure 7
0010
0000
1000
0000
,  // measure 8
2000
0000
0000
0000
,  // measure 9
3000
0000
0010
0000
,  // measure 10
1000
0000
0001
0000
,  // measure 11
0010
0000
1000
0000
,  // measure 12
0010
0000
0001
0001
,  // measure 13
0001
0001
0000
0001
,  // measure 14
0000
0010
0000
0001
,  // measure 15
0000
1000
0000
0010
,  // measure 16
0000
0100
0000
1000
,  // measure 17
0000
0010
0000
0100
,  // measure 18
0000
1000
0000
0010
,  // measure 19
0000
0001
0000
0010
,  // measure 20
0000
1000
0000
0000
,  // measure 21
0000
0000
0000
0010
,  // measure 22
0000
1000
0000
0001
,  // measure 23
0000
1000
0000
0010
,  // measure 24
0000
0001
0000
0100
,  // measure 25
0000
1000
0000
0010
,  // measure 26
0000
1000
0000
0010
,  // measure 27
0000
0001
0000
1000
,  // measure 28
0000
0010
0000
0001
,  // measure 29
0000
1000
0002
0000
,  // measure 30
0000
0000
0000
0000
,  // measure 31
0003
0000
1000
0000
,  // measure 32
0100
0000
1000
0000
,  // measure 33
0100
0000
1000
0000
,  // measure 34
0010
0000
0001
0000
,  // measure 35
0010
0000
1000
0000
,  // measure 36
0001
0000
2000
0000
,  // measure 37
3000
0000
1000
0000
,  // measure 38
0001
0000
1000
0000
,  // measure 39
0010
0000
0100
0000
,  // measure 40
0001
0000
0100
0000
,  // measure 41
1000
0000
0010
0000
,  // measure 42
1000
0000
0010
0000
,  // measure 43
0001
0000
0010
0000
,  // measure 44
1000
0000
0001
0000
,  // measure 45
0010
0000
1000
0000
,  // measure 46
0100
0000
0001
0000
,  // measure 47
0010
0000
0001
0000
,  // measure 48
1000
1000
0010
0000
,  // measure 49
1000
0000
0002
0000
,  // measure 50
0000
0000
0000
0003
,  // measure 51
0000
0000
0001
0000
,  // measure 52
1000
0000
0100
0000
,  // measure 53
1000
0000
2000
0000
,  // measure 54
0000
0000
0000
0000
,  // measure 55
3000
0000
1000
0000
,  // measure 56
0010
0000
0001
0000
,  // measure 57
0100
0000
0010
0010
,  // measure 58
0010
0001
0001
0001
,  // measure 59
0010
0010
0010
1000
,  // measure 60
1000
1000
0001
0001
,  // measure 61
0001
0001
0000
0000
;
