#TITLE:ChalkZone Full Theme;
#SUBTITLE:;
#ARTIST:Nickelodeon;
#TITLETRANSLIT:;
#SUBTITLETRANSLIT:;
#ARTISTTRANSLIT:;
#GENRE:;
#CREDIT:Gorilla v1.1.3 (Dancing Monkeys v1.06);
#BANNER:unnamed.png;
#BACKGROUND:e822MCGABwpj3Jofp4kitGjSIqi.png;
#LYRICSPATH:;
#CDTITLE:;
#MUSIC:ChalkZone Full Theme Song (Fan-Made).mp3;
#OFFSET:-0.703197;
#SAMPLESTART:38.578117;
#SAMPLELENGTH:12.000000;
#SELECTABLE:YES;
#BPMS:0.000000=143.000000
;
#STOPS:
;
#BGCHANGES:;
#KEYSOUNDS:;
#ATTACKS:;

//---------------dance-single - Basic----------------
#NOTES:
     dance-single:
     Basic:
     Easy:
     1:
     0.183682,0.231440,0.000000,0.038573,0.000000,100.000000,100.000000,0.000000,3.000000,0.000000,0.000000,0.183682,0.231440,0.000000,0.038573,0.000000,100.000000,100.000000,0.000000,3.000000,0.000000,0.000000:
0000
0000
1000
0000
,
0000
0001
0000
0000
,
0010
0010
2000
0000
,
3000
1000
0000
0010
,
0000
1000
0000
0001
,
0000
0001
0001
1000
,
0000
0001
0000
0100
,
0001
0001
0010
0000
,
0001
0100
0000
1000
,
0000
0001
0000
0100
,
0000
0001
1000
0010
,
0000
0001
1000
0010
,
0001
1000
0000
0001
,
0000
0001
0010
0100
,
0000
0001
0100
0010
,
0000
1000
0000
0001
,
0000
0001
1000
0100
,
0000
0001
1000
0010
,
0001
0001
0001
0000
,
0001
0001
0100
0010
,
1000
2000
0000
0000
,
0000
0000
3000
0000
,
0001
0000
0010
0000
,
1000
0000
0001
0000
,
0010
0000
1000
0000
,
0010
0000
0100
0000
,
0001
0000
0010
0000
,
1000
0000
0001
0001
,
0001
0000
1000
0000
,
0010
0000
0100
0000
,
1000
0000
0010
0000
,
0100
0000
0001
0000
,
0010
0000
1000
0000
,
0020
0000
0000
0000
,
0030
0000
1000
0000
,
0010
0000
1000
0000
,
0010
0000
0100
0000
,
0001
0000
0000
1000
,
1000
0000
0010
0000
,
0100
0000
0010
0000
,
1000
0000
0010
0000
,
0100
0000
0001
0000
,
0010
0000
1000
0000
,
1000
0000
1000
0000
,
1000
1000
0000
0000
,
0010
0000
0000
0000
;

//---------------dance-single - Basic----------------
#NOTES:
     dance-single:
     :
     Beginner:
     1:
     0.148783,0.144650,0.000000,0.000000,0.000000,81.000000,81.000000,0.000000,0.000000,0.000000,0.000000,0.148783,0.144650,0.000000,0.000000,0.000000,81.000000,81.000000,0.000000,0.000000,0.000000,0.000000:
// measure 0
0000
0000
1000
0000
,  // measure 1
0000
0001
0000
0000
,  // measure 2
0010
0000
1000
0000
,  // measure 3
0000
1000
0000
0010
,  // measure 4
0000
1000
0000
0001
,  // measure 5
0000
0001
0000
1000
,  // measure 6
0000
0001
0000
0100
,  // measure 7
0000
0001
0000
0000
,  // measure 8
0001
0000
0000
1000
,  // measure 9
0000
0001
0000
0100
,  // measure 10
0000
0001
0000
0010
,  // measure 11
0000
0001
0000
0010
,  // measure 12
0000
1000
0000
0001
,  // measure 13
0000
0001
0000
0100
,  // measure 14
0000
0001
0000
0010
,  // measure 15
0000
1000
0000
0001
,  // measure 16
0000
0001
0000
0100
,  // measure 17
0000
0001
0000
0010
,  // measure 18
0000
0001
0000
0000
,  // measure 19
0001
0000
0100
0000
,  // measure 20
1000
1000
0000
0000
,  // measure 21
0000
0000
0000
0000
,  // measure 22
0001
0000
0010
0000
,  // measure 23
1000
0000
0001
0000
,  // measure 24
0010
0000
1000
0000
,  // measure 25
0010
0000
0100
0000
,  // measure 26
0001
0000
0010
0000
,  // measure 27
1000
0000
0001
0000
,  // measure 28
0001
0000
1000
0000
,  // measure 29
0010
0000
0100
0000
,  // measure 30
1000
0000
0010
0000
,  // measure 31
0100
0000
0001
0000
,  // measure 32
0010
0000
1000
0000
,  // measure 33
0010
0000
0000
0000
,  // measure 34
0000
0000
1000
0000
,  // measure 35
0010
0000
1000
0000
,  // measure 36
0010
0000
0100
0000
,  // measure 37
0001
0000
0000
1000
,  // measure 38
0000
0000
0010
0000
,  // measure 39
0100
0000
0010
0000
,  // measure 40
1000
0000
0010
0000
,  // measure 41
0100
0000
0001
0000
,  // measure 42
0010
0000
1000
0000
,  // measure 43
1000
0000
1000
0000
,  // measure 44
1000
0000
0000
0000
,  // measure 45
0010
0000
0000
0000
;
