#TITLE:Chizzy Stephens - Catching Villains;
#SUBTITLE:;
#ARTIST:Dancing Monkeys Project;
#TITLETRANSLIT:;
#SUBTITLETRANSLIT:;
#ARTISTTRANSLIT:;
#GENRE:;
#CREDIT:Gorilla v1.1.3 (Dancing Monkeys v1.06);
#BANNER:download.png;
#BACKGROUND:maxresdefault.png;
#LYRICSPATH:;
#CDTITLE:;
#MUSIC:Chizzy Stephens - Catching Villains.mp3;
#OFFSET:-0.553923;
#SAMPLESTART:43.587757;
#SAMPLELENGTH:12.000000;
#SELECTABLE:YES;
#BPMS:0.000000=145.001999
;
#STOPS:
;
#BGCHANGES:;
#KEYSOUNDS:;
#ATTACKS:;

//---------------dance-single - Basic----------------
#NOTES:
     dance-single:
     Basic:
     Easy:
     3:
     0.109464,0.126842,0.000000,0.043786,0.000000,140.000000,140.000000,0.000000,8.000000,0.000000,0.000000,0.109464,0.126842,0.000000,0.043786,0.000000,140.000000,140.000000,0.000000,8.000000,0.000000,0.000000:
0100
0000
0000
0010
,
0000
0000
0000
0010
,
0000
0000
0000
0002
,
0000
0000
0000
0003
,
0010
0000
0000
1000
,
0000
0000
1000
0001
,
0000
0000
1000
0001
,
0000
0000
0001
1000
,
0000
0000
0000
1000
,
0000
0000
0001
0000
,
0000
0000
0200
0000
,
0000
0000
0300
0000
,
1000
0010
0100
1000
,
0001
0010
0001
1000
,
0010
1000
1000
0001
,
0100
0010
1000
0001
,
0010
0100
0100
0100
,
0100
0100
1000
0001
,
0001
0001
0001
0001
,
0001
1000
1000
1000
,
0010
0200
0000
0000
,
0300
0001
1000
0020
,
0000
0000
0000
0000
,
0000
0030
0000
0001
,
0002
0000
0000
0000
,
0003
0001
0010
0010
,
0002
0000
0000
0000
,
0003
0001
0100
0010
,
0001
1000
0010
0000
,
0100
0000
0100
0010
,
0001
0100
0001
0100
,
1000
0001
0100
0002
,
0000
0000
0000
0000
,
0003
0001
0100
0010
,
1000
1000
0010
0200
,
0000
0000
0000
0300
,
0010
0001
0100
1000
,
0010
0100
1000
0001
,
0000
0100
1000
0001
,
0100
0010
0001
1000
,
0000
0001
0001
1000
,
1000
0010
0010
1000
,
0000
0000
1000
0001
,
0000
1000
1000
0010
,
0010
0010
0001
0001
,
0001
0010
0010
0010
,
0010
0010
1000
1000
,
1000
1000
0001
0001
,
0001
0001
0100
1000
,
0010
0001
0100
0010
,
0001
0100
0001
0100
,
0010
0001
0100
0000
;

//---------------dance-single - Basic----------------
#NOTES:
     dance-single:
     :
     Beginner:
     3:
     0.064115,0.070810,0.000000,0.043786,0.000000,82.000000,82.000000,0.000000,8.000000,0.000000,0.000000,0.064115,0.070810,0.000000,0.043786,0.000000,82.000000,82.000000,0.000000,8.000000,0.000000,0.000000:
// measure 0
0100
0000
0000
0010
,  // measure 1
0000
0000
0000
0010
,  // measure 2
0000
0000
0000
0002
,  // measure 3
0000
0000
0000
0000
,  // measure 4
0003
0000
0000
1000
,  // measure 5
0000
0000
1000
0000
,  // measure 6
0010
0000
1000
0000
,  // measure 7
0010
0000
0001
1000
,  // measure 8
0000
0010
0000
1000
,  // measure 9
0000
0000
0001
0000
,  // measure 10
0100
0000
0200
0000
,  // measure 11
0000
0000
0300
0000
,  // measure 12
1000
0000
0100
0000
,  // measure 13
0010
0000
0001
0000
,  // measure 14
0010
0000
1000
0000
,  // measure 15
0100
0000
1000
0000
,  // measure 16
0010
0000
1000
0000
,  // measure 17
0001
0000
1000
0000
,  // measure 18
0001
0000
0010
0000
,  // measure 19
0001
0000
0100
0200
,  // measure 20
0000
0000
0000
0000
,  // measure 21
0300
0001
0000
0020
,  // measure 22
0000
0000
0000
0000
,  // measure 23
0000
0030
0000
0002
,  // measure 24
0000
0000
0000
0000
,  // measure 25
0003
0000
0010
0000
,  // measure 26
0002
0000
0000
0000
,  // measure 27
0003
0000
0100
0000
,  // measure 28
0001
0000
0010
0000
,  // measure 29
0100
0000
0100
0000
,  // measure 30
0010
0000
0001
0000
,  // measure 31
1000
0000
0100
0002
,  // measure 32
0000
0000
0000
0000
,  // measure 33
0003
0000
0100
0000
,  // measure 34
1000
0000
0200
0000
,  // measure 35
0000
0000
0000
0300
,  // measure 36
0000
0001
0000
1000
,  // measure 37
0000
0100
0000
0001
,  // measure 38
0000
0100
0000
0001
,  // measure 39
0000
0010
0000
1000
,  // measure 40
0000
0001
0000
1000
,  // measure 41
0000
0010
0000
1000
,  // measure 42
0000
0000
0010
0000
,  // measure 43
0000
1000
0000
0100
,  // measure 44
0000
0010
0000
0001
,  // measure 45
0000
0010
0000
0100
,  // measure 46
0000
0001
0000
0100
,  // measure 47
0000
1000
0000
0010
,  // measure 48
0000
0001
0000
1000
,  // measure 49
0000
0001
0000
0010
,  // measure 50
0000
1000
0000
0100
,  // measure 51
0000
0001
0000
0100
;
