#TITLE:Caramelldansen RapBit;
#SUBTITLE:;
#ARTIST:Dancing Monkeys Project;
#TITLETRANSLIT:;
#SUBTITLETRANSLIT:;
#ARTISTTRANSLIT:;
#GENRE:;
#CREDIT:Gorilla v1.1.3 (Dancing Monkeys v1.06);
#BANNER:Caramelldansen (Speedycake Mix).png;
#BACKGROUND:Caramelldansen (Speedycake Mix)-bg.png;
#LYRICSPATH:;
#CDTITLE:;
#MUSIC:onlymp3.to - caramelldansen_version_rap_bit-P0dJVH4XYBI-192k-1696607590.mp3;
#OFFSET:-0.216188;
#SAMPLESTART:36.439102;
#SAMPLELENGTH:12.000000;
#SELECTABLE:YES;
#BPMS:0.000000=165.641006
;
#STOPS:
;
#BGCHANGES:0.000=Caramelldansen (Speedycake Mix).avi=1.000=0=0=0=StretchNoLoop====,
99999=-nosongbg-=1.000=0=0=0 // don't automatically add -songbackground-
;
#KEYSOUNDS:;
#ATTACKS:;

//---------------dance-single - Basic----------------
#NOTES:
     dance-single:
     Basic:
     Easy:
     6:
     0.380662,0.308336,0.028550,0.000000,0.000000,280.000000,277.000000,3.000000,0.000000,0.000000,0.000000,0.380662,0.308336,0.028550,0.000000,0.000000,280.000000,277.000000,3.000000,0.000000,0.000000,0.000000:
// measure 0
0000
0000
1000
1000
,  // measure 1
0000
0000
0001
0001
,  // measure 2
0000
1000
1000
0000
,  // measure 3
0010
0100
0001
0100
,  // measure 4
0001
1000
0010
0100
,  // measure 5
0000
1001
0000
0010
,  // measure 6
0000
1001
0000
0010
,  // measure 7
0000
1001
0000
0010
,  // measure 8
1000
0100
0010
0001
,  // measure 9
1000
0010
0100
0001
,  // measure 10
1000
0100
0010
0100
,  // measure 11
1000
0100
0010
1000
,  // measure 12
0001
0100
0010
1000
,  // measure 13
1000
0100
0010
0001
,  // measure 14
0001
0010
0100
1000
,  // measure 15
0001
0010
0100
1000
,  // measure 16
1000
0010
0100
0001
,  // measure 17
1000
0010
0100
0001
,  // measure 18
1000
0001
0100
0010
,  // measure 19
1000
0001
0100
0010
,  // measure 20
1000
0001
0010
0100
,  // measure 21
1000
0100
0010
0001
,  // measure 22
1000
0100
0010
0001
,  // measure 23
1000
0010
0100
0001
,  // measure 24
1000
0001
0100
0010
,  // measure 25
1000
0100
0010
0001
,  // measure 26
1000
0001
0100
0010
,  // measure 27
1000
0001
0010
0100
,  // measure 28
1000
0100
0010
0001
,  // measure 29
1000
0100
0010
1000
,  // measure 30
0001
0100
0010
0001
,  // measure 31
1000
0100
0010
0001
,  // measure 32
1000
0001
0100
0010
,  // measure 33
1000
0001
0010
0100
,  // measure 34
0001
1000
0100
0010
,  // measure 35
1000
0100
0010
0001
,  // measure 36
1000
0001
0100
0010
,  // measure 37
0001
1000
0010
0100
,  // measure 38
1000
0001
0010
0100
,  // measure 39
1000
0100
0010
0001
,  // measure 40
1000
0001
0100
0010
,  // measure 41
0001
1000
0100
0010
,  // measure 42
0001
1000
0010
0100
,  // measure 43
1000
0001
0100
0001
,  // measure 44
1000
0100
0010
0001
,  // measure 45
1000
0001
0100
0010
,  // measure 46
1000
0100
0010
0001
,  // measure 47
1000
0001
0100
0010
,  // measure 48
1000
0100
0010
0001
,  // measure 49
0100
1000
0001
1000
,  // measure 50
0001
1000
0010
0100
,  // measure 51
1000
0100
0010
0001
,  // measure 52
1000
0001
0100
0010
,  // measure 53
1000
0001
0100
0010
,  // measure 54
0001
1000
0010
0100
,  // measure 55
1000
0100
0010
0001
,  // measure 56
1000
0100
0010
0001
,  // measure 57
1000
0001
0100
0010
,  // measure 58
1000
0001
0010
0100
,  // measure 59
0001
1000
0100
0010
,  // measure 60
1000
0100
0010
0001
,  // measure 61
1000
0100
0010
0001
,  // measure 62
0001
0010
0100
1000
,  // measure 63
1000
0001
0100
0010
,  // measure 64
1000
0100
0010
0001
,  // measure 65
1000
0001
0100
0010
,  // measure 66
0001
1000
0010
0100
,  // measure 67
0100
1000
1000
0010
,  // measure 68
0010
1000
1000
0100
,  // measure 69
0100
0001
0001
0010
,  // measure 70
0010
1000
1000
0010
,  // measure 71
0010
0100
0100
1000
,  // measure 72
1000
0000
0000
0000
;

//---------------dance-single - Standard----------------
#NOTES:
     dance-single:
     Standard:
     Medium:
     7:
     0.447278,0.402550,0.066616,0.000000,0.000000,329.000000,322.000000,7.000000,0.000000,0.000000,0.000000,0.447278,0.402550,0.066616,0.000000,0.000000,329.000000,322.000000,7.000000,0.000000,0.000000,0.000000:
0000
0000
0000
0000
0001
0000
0000
0000
,
0000
0000
0000
0000
0001
0000
0001
0000
,
0000
0000
0000
0000
0001
0000
0000
0000
,
0000
0000
0000
0000
1000
0000
0000
0000
,
0000
0000
1000
0000
0000
0000
1001
0000
,
0000
0000
0110
0000
0000
0000
0101
0000
,
0000
0000
0110
0000
0000
0000
1100
0000
,
0000
0000
0110
0000
0000
0000
1010
0000
,
1000
0000
0100
0000
1000
0000
0001
0100
,
0001
0000
0100
0000
0001
0000
1000
0100
,
0001
0000
0100
0001
0001
0000
0001
0000
,
1000
0000
0100
0000
1000
0000
0001
0100
,
1000
0000
0010
0000
1000
0000
0001
0010
,
0001
0000
0100
0000
0001
0000
1000
0100
,
0001
0000
0100
0000
0001
0000
1000
0100
,
1000
0000
0100
0000
1000
0000
0001
0100
,
1000
0000
0010
0000
1000
0000
0001
0010
,
0001
0000
0100
0000
0001
0000
1000
0100
,
0001
0010
0100
0000
0010
0000
0001
0000
,
0001
0010
0100
0000
0010
0000
0001
0000
,
1000
0100
0010
0000
0100
0000
1000
0000
,
1000
0000
0100
0000
1000
0000
0001
0100
,
0001
0000
0100
0000
0001
0000
1000
0100
,
0001
0000
0100
0000
0001
0000
1000
0100
,
0001
0010
0100
0000
0010
0000
0001
0000
,
1000
0000
0100
0000
1000
0000
0001
0100
,
0001
0010
0100
0000
0010
0000
0001
0000
,
1000
0100
0010
0000
0100
0000
1000
0000
,
1000
0000
0100
0000
1000
0000
0001
0100
,
1000
0000
0100
0000
1000
0000
0001
0100
,
0001
0000
0010
0000
0001
0000
1000
0010
,
1000
0000
0100
0000
1000
0000
0001
0100
,
0001
0010
0100
0000
0010
0000
0001
0000
,
1000
0010
0100
0000
0010
0000
1000
0000
,
0001
0010
0100
0000
0010
0000
0001
0000
,
1000
0000
0100
0000
1000
0000
0001
0100
,
0001
0010
0100
0000
0010
0000
0001
0000
,
1000
0010
0100
0000
0010
0000
1000
0000
,
0001
0010
0100
0000
0010
0000
0001
0000
,
1000
0000
0100
0000
1000
0000
0001
0100
,
0001
0010
0100
0000
0010
0000
0001
0000
,
0001
0100
0010
0000
0100
0000
0001
0000
,
0001
0010
0100
0000
0010
0000
0001
0000
,
0001
0000
0100
0001
0001
0000
0001
0000
,
1000
0000
0100
0000
1000
0000
0001
0100
,
0001
0010
0100
0000
0010
0000
0001
0000
,
1000
0000
0100
0000
1000
0000
0001
0100
,
0001
0010
0100
0000
0010
0000
0001
0000
,
1000
0000
0100
0000
1000
0000
0001
0100
,
0001
0010
0002
0000
0010
0000
0001
0000
,
0001
0000
0103
0000
0010
0000
0001
0000
,
1000
0000
0100
0000
1000
0000
0001
0100
,
0001
0010
0100
0000
0010
0000
0001
0000
,
1000
0010
0100
0000
0010
0000
1000
0000
,
0001
0010
0100
0000
0010
0000
0001
0000
,
1000
0000
0100
0000
1000
0000
0001
0100
,
0001
0000
0010
0000
0001
0000
1000
0010
,
0001
0010
0100
0000
0010
0000
0001
0000
,
0001
0100
0010
0000
0100
0000
0001
0000
,
0001
0010
0100
0000
0010
0000
0001
0000
,
1000
0000
0100
0000
1000
0000
0001
0100
,
1000
0000
0010
0000
1000
0000
0001
0010
,
1000
0000
0100
0000
1000
0000
0001
0100
,
0001
0010
0100
0000
0010
0000
0001
0000
,
1000
0000
0100
0000
1000
0000
0001
0100
,
0001
0010
0100
0000
0010
0000
0001
0000
,
0001
0010
0100
0000
0010
0000
0001
0000
,
1000
0010
0100
0000
0010
0000
1000
0000
,
1000
0010
0100
0000
0010
0000
1000
0000
,
1000
0010
0100
0000
0010
0000
1000
0000
,
0000
0000
0000
0000
0001
0000
0000
0000
,
;

//---------------dance-single - Heavy----------------
#NOTES:
     dance-single:
     Heavy:
     Hard:
     8:
     0.496221,0.469642,0.066616,0.000000,0.000000,365.000000,358.000000,7.000000,0.000000,0.000000,0.000000,0.496221,0.469642,0.066616,0.000000,0.000000,365.000000,358.000000,7.000000,0.000000,0.000000,0.000000:
0000
0000
1000
0000
1000
0000
0000
0000
,
0000
1000
0000
0000
0001
0000
0001
0000
,
0000
0000
1000
0000
1000
0000
0000
0000
,
0000
0000
0001
0000
0001
0000
0000
0000
,
0000
0000
0001
0000
0000
0000
0110
0000
,
0000
0000
1001
0000
0000
0000
0110
0000
,
0000
0000
1001
0000
0000
0000
0110
0000
,
0000
0000
1001
0000
0000
0000
0110
0000
,
1000
0000
0001
1000
0100
0000
1000
0100
,
1000
0000
0001
1000
0100
0000
1000
0100
,
0001
0100
0001
1000
1000
0000
1000
0000
,
1000
0000
0001
1000
0100
0000
1000
0100
,
0001
0000
1000
0001
0010
0000
0001
0010
,
0001
0000
1000
0001
0100
0000
0001
0100
,
0001
0000
1000
0001
0010
0000
0001
0010
,
1000
0000
0001
1000
0010
0000
1000
0010
,
1000
0000
0001
1000
0010
0000
1000
0010
,
1000
0000
0001
1000
0100
0000
1000
0100
,
0001
0100
0010
0000
0100
0000
0010
0000
,
0001
0010
0100
0000
0010
0000
0100
0000
,
1000
0010
0100
0000
0010
0000
0100
0000
,
1000
0000
0001
1000
0100
0000
1000
0100
,
0001
0000
1000
0001
0100
0000
0001
0100
,
1000
0000
0001
1000
0010
0000
1000
0010
,
0001
0100
0010
0000
0100
0000
0010
0000
,
1000
0000
0001
1000
0100
0000
1000
0100
,
0001
0100
0010
0000
0100
0000
0010
0000
,
1000
0010
0100
0000
0010
0000
0100
0000
,
1000
0000
0001
1000
0100
0000
1000
0100
,
1000
0000
0001
1000
0010
0000
1000
0010
,
1000
0000
0001
1000
0010
0000
1000
0010
,
1000
0000
0001
1000
0100
0000
1000
0100
,
0001
0100
0010
0000
0100
0000
0010
0000
,
0001
0100
0010
0000
0100
0000
0010
0000
,
0001
0010
0100
0000
0010
0000
0100
0000
,
1000
0000
0001
1000
0100
0000
1000
0100
,
0001
0100
0010
0000
0100
0000
0010
0000
,
1000
0100
0010
0000
0100
0000
0010
0000
,
0001
0100
0010
0000
0100
0000
0010
0000
,
1000
0000
0001
1000
0100
0000
1000
0100
,
0001
0100
0010
0000
0100
0000
0010
0000
,
0001
0010
0100
0000
0010
0000
0100
0000
,
0001
0100
0010
0000
0100
0000
0010
0000
,
0001
0100
0001
1000
1000
0000
1000
0000
,
1000
0000
0001
1000
0100
0000
1000
0100
,
0001
0100
0010
0000
0100
0000
0010
0000
,
1000
0000
0001
1000
0100
0000
1000
0100
,
0001
0100
0010
0000
0100
0000
0010
0000
,
1000
0000
0001
1000
0100
0000
1000
0100
,
0001
0100
0002
0000
0100
0000
0010
0000
,
0001
0000
0013
0000
0100
0000
0010
0000
,
1000
0000
0001
1000
0100
0000
1000
0100
,
0001
0100
0010
0000
0100
0000
0010
0000
,
0001
0010
0100
0000
0010
0000
0100
0000
,
1000
0100
0010
0000
0100
0000
0010
0000
,
1000
0000
0001
1000
0100
0000
1000
0100
,
0001
0000
1000
0001
0010
0000
0001
0010
,
0001
0100
0010
0000
0100
0000
0010
0000
,
0001
0010
0100
0000
0010
0000
0100
0000
,
0001
0010
0100
0000
0010
0000
0100
0000
,
1000
0000
0001
1000
0100
0000
1000
0100
,
1000
0000
0001
1000
0100
0000
1000
0100
,
0001
0000
1000
0001
0100
0000
0001
0100
,
0001
0100
0010
0000
0100
0000
0010
0000
,
1000
0000
0001
1000
0100
0000
1000
0100
,
0001
0100
0010
0000
0100
0000
0010
0000
,
0001
0010
0100
0000
0010
0000
0100
0000
,
1000
0010
0100
0000
0010
0000
0100
0000
,
0001
0100
0010
0000
0100
0000
0010
0000
,
0001
0100
0010
0000
0100
0000
0010
0000
,
0000
0000
1000
0000
1000
0000
0000
0000
,
;
