#TITLE:Caramelldansen Full Song;
#SUBTITLE:;
#ARTIST:Caramella Girls;
#TITLETRANSLIT:;
#SUBTITLETRANSLIT:;
#ARTISTTRANSLIT:;
#GENRE:;
#CREDIT:Gorilla v1.1.3 (Dancing Monkeys v1.06);
#BANNER:lmaxresdefault.png;
#BACKGROUND:maxresdefault.png;
#LYRICSPATH:;
#CDTITLE:;
#MUSIC:FNF CaramellDansen (Full Combo).mp3;
#OFFSET:-0.352542;
#SAMPLESTART:38.232372;
#SAMPLELENGTH:12.000000;
#SELECTABLE:YES;
#BPMS:0.000000=164.731003
;
#STOPS:
;
#BGCHANGES:;
#KEYSOUNDS:;
#ATTACKS:;

//---------------dance-single - Basic----------------
#NOTES:
     dance-single:
     Basic:
     Easy:
     3:
     0.258038,0.405980,0.057342,0.074544,0.000000,315.000000,305.000000,10.000000,13.000000,0.000000,0.000000,0.258038,0.405980,0.057342,0.074544,0.000000,315.000000,305.000000,10.000000,13.000000,0.000000,0.000000:
0000
1000
0000
0001
,
0000
0000
0000
1000
,
0000
2000
0000
3000
,
0000
0010
0000
0002
,
0000
0003
0000
1000
,
0000
0000
2000
0000
,
3000
0000
0000
0002
,
0000
0000
0000
0003
,
0000
0000
0000
0100
,
0000
0001
0000
0100
,
0000
0001
0000
1000
,
1000
1000
0000
0001
,
0001
0001
0000
0010
,
0010
0010
0000
1000
,
1000
1000
0000
1000
,
0100
0100
0000
0001
,
0010
0010
0000
1000
,
0100
0100
0000
0001
,
0010
0010
0000
1000
,
1000
0010
0010
0100
,
0100
0100
0000
1000
,
1000
0100
0100
0010
,
0010
0010
0000
0100
,
0100
0010
0010
0100
,
0100
1000
1000
0010
,
0000
0100
0000
0001
,
0000
0000
0000
0100
,
0100
1000
1000
0010
,
0010
0001
0000
0100
,
0100
1000
1000
0010
,
0010
0001
0000
0010
,
0010
0100
0100
0001
,
0001
1000
1000
0100
,
0100
1000
1000
0010
,
0000
0000
0000
0100
,
0100
1000
0000
0001
,
1000
1000
0010
0001
,
0001
0001
0000
0100
,
0100
1000
0010
0001
,
0001
0001
0000
0100
,
0010
0010
0000
1000
,
1000
1000
0000
0010
,
0010
0010
0000
1000
,
0000
0001
0000
0100
,
0000
1000
0000
0010
,
0000
0001
0000
0100
,
0000
0010
0000
1000
,
0000
0100
0000
0010
,
0000
0100
0000
0001
,
0000
0010
0000
1000
,
0000
0000
0000
0001
,
0000
0010
0000
1000
,
0000
0010
0000
0100
,
0000
0001
0000
0010
,
0000
1000
0000
0010
,
0000
0100
0000
1000
,
0000
0010
0000
0100
,
0000
1000
0000
0010
,
0000
0000
0000
1000
,
0100
0100
0001
0010
,
0010
0000
0000
1000
,
0100
0100
0010
0001
,
0001
0000
0000
2000
,
0000
0000
0000
3000
,
0020
0000
0000
0000
,
0000
0030
0000
0000
,
1001
1001
1001
0100
,
0100
0100
0000
0010
,
0001
0001
0010
1000
,
1000
1000
0000
0100
,
0010
0001
0001
1000
,
0100
0100
0000
0001
,
0001
0010
1000
1000
,
0100
0100
0000
1001
,
1001
1001
0000
1000
,
1000
1000
1000
0010
,
0010
0010
0010
0001
,
0001
0001
0001
1000
,
1000
1000
1000
0010
,
0010
0010
0010
0100
,
0100
0100
0100
1000
,
1000
1000
1000
0001
,
0001
0001
0000
2000
,
0000
0000
0000
0000
,
0000
3000
0000
0020
,
0000
0000
0000
0000
,
0000
0030
0000
0002
,
0000
0000
0000
0000
,
0000
0003
0000
2000
,
0000
3000
0000
0020
,
0000
0030
0000
0001
,
0000
0000
0000
1000
,
1000
1000
0000
0010
,
0010
0001
0001
0001
,
0000
0000
0000
1000
,
1000
0010
0010
0010
,
0000
0000
0000
1000
,
1000
0100
0100
0100
,
0000
0000
0000
0001
,
0001
0010
0010
0010
,
1001
1001
1001
1000
,
1000
1000
0000
0010
,
0001
0001
0010
1000
,
0100
0100
0000
0010
,
0010
0001
0001
1000
,
1000
1000
0002
0000
,
0000
0003
0000
1000
,
1000
0001
0000
0010
,
0010
1000
0000
1001
,
0010
0010
0000
1000
,
1000
0010
0010
0001
,
1000
0001
0000
1000
,
1000
0010
0010
1000
,
1000
0100
0000
0001
,
0001
0010
0010
1000
,
0001
1000
0000
0001
,
0001
0010
0010
2000
,
0000
0000
0000
0000
,
3000
0000
0000
0000
;

//---------------dance-single - Basic----------------
#NOTES:
     dance-single:
     :
     Medium:
     3:
     0.339135,0.439811,0.131886,0.080278,0.000000,414.000000,391.000000,23.000000,14.000000,0.000000,0.000000,0.339135,0.439811,0.131886,0.080278,0.000000,414.000000,391.000000,23.000000,14.000000,0.000000,0.000000:
// measure 0
0000
1000
0000
0001
,  // measure 1
0000
0000
0000
1000
,  // measure 2
0000
2000
0000
3000
,  // measure 3
0000
0010
0000
0002
,  // measure 4
0000
0003
0000
1000
,  // measure 5
0000
0000
2000
0000
,  // measure 6
0000
3000
0000
0002
,  // measure 7
0000
0000
0000
0003
,  // measure 8
0000
0000
0000
0100
,  // measure 9
0000
0001
0000
0100
,  // measure 10
0000
0001
0000
1000
,  // measure 11
1000
1000
0010
0001
,  // measure 12
0001
0001
0100
0010
,  // measure 13
0010
0010
0001
1000
,  // measure 14
1000
1000
0010
1000
,  // measure 15
0100
0100
0001
0001
,  // measure 16
0010
0010
0100
1000
,  // measure 17
0100
0100
0010
0001
,  // measure 18
0010
0010
0100
1000
,  // measure 19
1000
0010
0010
0100
,  // measure 20
0100
0100
0001
1000
,  // measure 21
1000
0100
0100
0010
,  // measure 22
0010
0010
1000
0100
,  // measure 23
0100
0010
0010
0100
,  // measure 24
0100
1000
1000
0010
,  // measure 25
0001
0100
0100
0001
,  // measure 26
0010
0010
0100
0100
,  // measure 27
0100
1000
1000
0010
,  // measure 28
0010
0001
0001
0100
,  // measure 29
0100
1000
1000
0010
,  // measure 30
0010
0001
0001
0010
,  // measure 31
0010
0100
0100
0001
,  // measure 32
0001
1000
1000
0100
,  // measure 33
0100
1000
1000
0010
,  // measure 34
1001
1001
1001
0100
,  // measure 35
0100
1000
1000
0001
,  // measure 36
1000
1000
0010
0001
,  // measure 37
0001
0001
0010
0100
,  // measure 38
0100
1000
0010
0001
,  // measure 39
0001
0001
0010
0100
,  // measure 40
0010
0010
0100
1000
,  // measure 41
1000
1000
0100
1001
,  // measure 42
1001
1001
0010
1000
,  // measure 43
1000
0001
0001
0100
,  // measure 44
0100
1000
1000
0010
,  // measure 45
0010
0001
0001
0100
,  // measure 46
0100
0010
0010
1000
,  // measure 47
1000
0100
0100
0010
,  // measure 48
0010
0100
0100
0001
,  // measure 49
0001
0010
0010
1000
,  // measure 50
1000
0000
0000
0001
,  // measure 51
0010
0010
1000
0100
,  // measure 52
0010
0001
0010
0100
,  // measure 53
1000
0001
0100
0010
,  // measure 54
0100
1000
0100
0010
,  // measure 55
0001
0100
0010
1000
,  // measure 56
0100
0010
0001
0100
,  // measure 57
0010
1000
0100
0002
,  // measure 58
0000
0000
0003
1000
,  // measure 59
0100
0100
0001
0010
,  // measure 60
0010
0001
0001
1000
,  // measure 61
0100
0100
0010
0001
,  // measure 62
0001
1000
0000
2000
,  // measure 63
0000
0000
0000
3000
,  // measure 64
0020
0000
0000
0000
,  // measure 65
0000
0030
0000
0000
,  // measure 66
1001
1001
1001
0100
,  // measure 67
0100
0100
1000
0010
,  // measure 68
0001
0001
0010
1000
,  // measure 69
1000
1000
0010
0100
,  // measure 70
0010
0001
0001
1000
,  // measure 71
0100
0100
0010
0001
,  // measure 72
0001
0010
1000
1000
,  // measure 73
0100
0100
0010
1001
,  // measure 74
1001
1001
0010
1000
,  // measure 75
1000
1000
1000
0010
,  // measure 76
0010
0010
0010
0001
,  // measure 77
0001
0001
0001
1000
,  // measure 78
1000
1000
1000
0010
,  // measure 79
0010
0010
0010
0100
,  // measure 80
0100
0100
0100
1000
,  // measure 81
1000
1000
1000
0001
,  // measure 82
0001
0001
0001
2000
,  // measure 83
0000
0000
0000
0000
,  // measure 84
0000
3000
0000
0020
,  // measure 85
0000
0000
0000
0000
,  // measure 86
0000
0030
0000
0002
,  // measure 87
0000
0000
0000
0000
,  // measure 88
0000
0003
0000
2000
,  // measure 89
0000
3000
0000
0020
,  // measure 90
0000
0030
0000
0002
,  // measure 91
0000
0000
0003
1001
,  // measure 92
1001
1001
1001
0010
,  // measure 93
0010
0001
0001
0001
,  // measure 94
0010
0010
0010
1000
,  // measure 95
1000
0010
0010
0010
,  // measure 96
0100
0100
0100
1000
,  // measure 97
1000
0100
0100
0100
,  // measure 98
0001
0001
0001
0100
,  // measure 99
0100
0010
0010
0010
,  // measure 100
1001
1001
1001
1000
,  // measure 101
1000
0100
0100
0010
,  // measure 102
0001
0001
0010
1000
,  // measure 103
0100
0100
0001
0010
,  // measure 104
0010
0001
0001
1000
,  // measure 105
1000
1000
0010
0001
,  // measure 106
0010
0100
0010
1000
,  // measure 107
1000
0001
0010
1001
,  // measure 108
1001
1001
1001
0100
,  // measure 109
0010
0010
0001
1000
,  // measure 110
1000
0010
0010
0001
,  // measure 111
1000
0001
0010
1000
,  // measure 112
1000
0010
0010
1000
,  // measure 113
1000
0100
0010
0001
,  // measure 114
0001
0010
0010
1000
,  // measure 115
0001
1000
0100
0001
,  // measure 116
0001
0010
0010
2000
,  // measure 117
0000
0000
0000
0000
,  // measure 118
3000
0000
0000
0000
;
