#TITLE:CarWash;
#SUBTITLE:;
#ARTIST:Chrisrina Aguilera ft. Missy Elliot;
#TITLETRANSLIT:;
#SUBTITLETRANSLIT:;
#ARTISTTRANSLIT:;
#GENRE:;
#CREDIT:Gorilla v1.1.3 (Dancing Monkeys v1.06);
#BANNER:ab67616d0000b273b0a4724b6b15e756bfc0f449.png;
#BACKGROUND:p34876_v_v10_az.png;
#LYRICSPATH:;
#CDTITLE:;
#MUSIC:Christina Aguilera ft. Missy elliot - Car Wash (Lyrics).mp3;
#OFFSET:-2.320023;
#SAMPLESTART:54.476486;
#SAMPLELENGTH:12.000000;
#SELECTABLE:YES;
#BPMS:0.000000=115.038475
;
#STOPS:
;
#BGCHANGES:;
#KEYSOUNDS:;
#ATTACKS:;

//---------------dance-single - Basic----------------
#NOTES:
     dance-single:
     Basic:
     Easy:
     3:
     0.139264,0.140744,0.000000,0.000000,0.000000,120.000000,120.000000,0.000000,0.000000,0.000000,0.000000,0.139264,0.140744,0.000000,0.000000,0.000000,120.000000,120.000000,0.000000,0.000000,0.000000,0.000000:
// measure 0
1000
0000
0001
0001
,  // measure 1
0000
0010
0000
1000
,  // measure 2
0000
1000
0100
0001
,  // measure 3
0000
1000
0000
0010
,  // measure 4
0000
1000
0000
0100
,  // measure 5
0000
0001
0000
0010
,  // measure 6
0000
1000
0000
0010
,  // measure 7
0000
0001
0000
0010
,  // measure 8
0000
1000
0000
0010
,  // measure 9
0000
0001
0000
0010
,  // measure 10
0000
1000
0000
0100
,  // measure 11
0000
0010
0000
0001
,  // measure 12
0000
0010
0000
1000
,  // measure 13
0000
0001
0000
0010
,  // measure 14
0000
0001
0000
0001
,  // measure 15
0000
0100
0000
1000
,  // measure 16
0000
0100
0000
0010
,  // measure 17
0000
0100
0000
1000
,  // measure 18
0000
0010
0000
1000
,  // measure 19
0000
0001
0000
0100
,  // measure 20
0000
0100
0000
1000
,  // measure 21
0000
0100
0000
0001
,  // measure 22
0000
0010
0000
1000
,  // measure 23
0000
1000
0000
0010
,  // measure 24
0000
0001
0000
0100
,  // measure 25
0000
0001
0000
0100
,  // measure 26
0000
0001
0000
0100
,  // measure 27
0000
0001
0000
0100
,  // measure 28
0000
0001
0000
0100
,  // measure 29
0000
1000
0000
0010
,  // measure 30
0000
0001
0000
0100
,  // measure 31
0000
0001
0000
0100
,  // measure 32
0000
0010
0000
0001
,  // measure 33
0000
0100
0000
0001
,  // measure 34
0000
1000
0000
0001
,  // measure 35
0000
0100
0000
1000
,  // measure 36
1000
1000
0000
1000
,  // measure 37
0000
0001
0000
0100
,  // measure 38
0000
0100
0000
1000
,  // measure 39
0000
0010
0000
0010
,  // measure 40
0000
0001
0000
0100
,  // measure 41
0000
0100
0000
0001
,  // measure 42
0000
0010
0000
1000
,  // measure 43
0000
0010
0000
0001
,  // measure 44
0000
0100
0000
0001
,  // measure 45
0000
1000
0000
0010
,  // measure 46
0000
0001
0000
1000
,  // measure 47
0000
0010
0000
0100
,  // measure 48
0000
0001
0000
0010
,  // measure 49
0000
0001
0000
0100
,  // measure 50
0000
0001
0000
0010
,  // measure 51
0000
0001
0000
0100
,  // measure 52
0000
1000
0000
0010
,  // measure 53
0000
0001
0000
0100
,  // measure 54
0000
0010
0000
1000
,  // measure 55
0000
0010
0000
0010
,  // measure 56
0000
0100
0100
0100
,  // measure 57
0000
0010
0000
0100
;
