#VERSION:0.83;
#TITLE:Capcom vs. SNK 2 OST - vs LORD GOD RUGAL;
#SUBTITLE:;
#ARTIST:CAPCOM VS SNK;
#TITLETRANSLIT:;
#SUBTITLETRANSLIT:;
#ARTISTTRANSLIT:;
#GENRE:;
#ORIGIN:;
#CREDIT:Gorilla v1.1.3 (Dancing Monkeys v1.06);
#BANNER:hq720.png;
#BACKGROUND:khq720.png;
#PREVIEWVID:;
#JACKET:;
#CDIMAGE:;
#DISCIMAGE:;
#LYRICSPATH:;
#CDTITLE:;
#MUSIC:Capcom vs. SNK 2 OST - The Lord GOD (God Rugal's Theme).mp3;
#OFFSET:-0.646893;
#SAMPLESTART:46.109478;
#SAMPLELENGTH:12.000000;
#SELECTABLE:YES;
#BPMS:0.000=131.977;
#STOPS:;
#DELAYS:;
#WARPS:;
#TIMESIGNATURES:0.000=4=4;
#TICKCOUNTS:0.000=4;
#COMBOS:0.000=1;
#SPEEDS:0.000=1.000=0.000=0;
#SCROLLS:0.000=1.000;
#FAKES:;
#LABELS:0.000=Song Start;
#BGCHANGES:;
#KEYSOUNDS:;
#ATTACKS:
;

//---------------dance-single - Basic----------------
#NOTEDATA:;
#CHARTNAME:Basic;
#STEPSTYPE:dance-single;
#DESCRIPTION:Basic;
#CHARTSTYLE:;
#DIFFICULTY:Easy;
#METER:3;
#RADARVALUES:0.194897,0.239145,0.000000,0.150705,0.000000,172.000000,172.000000,0.000000,19.000000,0.000000,0.000000,0.000000,0.000000,0.000000,0.194897,0.239145,0.000000,0.150705,0.000000,172.000000,172.000000,0.000000,19.000000,0.000000,0.000000,0.000000,0.000000,0.000000;
#CREDIT:Basic;
#NOTES:
// measure 0
0000
0000
0001
0000
,  // measure 1
0001
0200
0000
0000
,  // measure 2
0300
0000
1000
0002
,  // measure 3
0000
0000
0003
1000
,  // measure 4
0000
0010
0000
0100
,  // measure 5
0000
0001
0000
0100
,  // measure 6
0000
1000
0000
0002
,  // measure 7
0000
0003
0000
0100
,  // measure 8
1000
1000
0001
0010
,  // measure 9
0010
0001
1000
1000
,  // measure 10
0010
0001
0001
0010
,  // measure 11
0100
0100
1000
0100
,  // measure 12
0100
0001
0010
0010
,  // measure 13
0100
1000
1000
0010
,  // measure 14
0001
0001
1000
0100
,  // measure 15
0100
0001
0010
2000
,  // measure 16
0000
0000
3000
0200
,  // measure 17
0000
0000
0300
0002
,  // measure 18
0000
0000
0003
0020
,  // measure 19
0000
0000
0030
0200
,  // measure 20
0000
0000
0300
2000
,  // measure 21
0000
0000
3000
0020
,  // measure 22
0000
0000
0030
2000
,  // measure 23
0000
0000
3000
0001
,  // measure 24
0000
0010
0000
0100
,  // measure 25
0000
0001
0000
0100
,  // measure 26
0000
0010
0000
0002
,  // measure 27
0000
0003
0000
0100
,  // measure 28
0100
1000
1000
0100
,  // measure 29
0010
0010
0100
1000
,  // measure 30
1000
0010
0010
0001
,  // measure 31
0010
0010
0100
1000
,  // measure 32
1000
0010
0010
0100
,  // measure 33
1000
1000
0100
0002
,  // measure 34
0000
0000
0003
0200
,  // measure 35
0000
0000
0300
1000
,  // measure 36
1000
1000
0100
0010
,  // measure 37
0001
0001
0001
0100
,  // measure 38
0001
0010
0010
0010
,  // measure 39
1000
0100
1000
1000
,  // measure 40
1000
0010
0001
1000
,  // measure 41
1000
1000
0100
0010
,  // measure 42
0001
0001
0001
1000
,  // measure 43
0000
0000
0000
0200
,  // measure 44
0000
0300
1000
2000
,  // measure 45
0000
3000
0000
0020
,  // measure 46
0000
0030
1000
0002
,  // measure 47
0000
0000
0003
0001
,  // measure 48
0000
0010
0000
0100
,  // measure 49
0000
0001
0000
0010
,  // measure 50
0000
1000
0000
0010
,  // measure 51
0000
0001
0000
0100
,  // measure 52
0000
0010
0000
0100
,  // measure 53
0000
0010
0000
0100
,  // measure 54
0000
0001
0000
0010
,  // measure 55
0000
1000
0000
0010
,  // measure 56
0000
1000
0000
0010
,  // measure 57
0000
0001
0000
0100
,  // measure 58
0000
0010
0000
0010
,  // measure 59
0000
0001
0000
0100
,  // measure 60
0100
0100
0100
0001
,  // measure 61
0001
0001
0001
0100
,  // measure 62
0100
0100
0100
0010
,  // measure 63
0010
0010
0010
1000
,  // measure 64
1000
1000
1000
0100
,  // measure 65
0100
0100
0100
0010
,  // measure 66
0010
0010
2000
0000
,  // measure 67
3000
0000
0000
0000
;
