#VERSION:0.83;
#TITLE:Candy Quahog Marshmallow;
#SUBTITLE:;
#ARTIST:Family Guy;
#TITLETRANSLIT:;
#SUBTITLETRANSLIT:;
#ARTISTTRANSLIT:;
#GENRE:;
#ORIGIN:;
#CREDIT:Gorilla v1.1.3 (Dancing Monkeys v1.06);
#BANNER:;
#BACKGROUND:;
#PREVIEWVID:;
#JACKET:;
#CDIMAGE:;
#DISCIMAGE:;
#LYRICSPATH:;
#CDTITLE:;
#MUSIC:Family Guy Candy Quahog MarshmallowCome On Home Lyrics.mp3;
#OFFSET:-0.492177;
#SAMPLESTART:69.528366;
#SAMPLELENGTH:12.000000;
#SELECTABLE:YES;
#BPMS:0.000=146.010;
#STOPS:;
#DELAYS:;
#WARPS:;
#TIMESIGNATURES:0.000=4=4;
#TICKCOUNTS:0.000=4;
#COMBOS:0.000=1;
#SPEEDS:0.000=1.000=0.000=0;
#SCROLLS:0.000=1.000;
#FAKES:;
#LABELS:0.000=Song Start;
#BGCHANGES:;
#KEYSOUNDS:;
#ATTACKS:
;

//---------------dance-single - Basic----------------
#NOTEDATA:;
#CHARTNAME:Basic;
#STEPSTYPE:dance-single;
#DESCRIPTION:Basic;
#CHARTSTYLE:;
#DIFFICULTY:Easy;
#METER:1;
#RADARVALUES:0.188028,0.263466,0.000000,0.081695,0.000000,145.000000,145.000000,0.000000,9.000000,0.000000,0.000000,0.000000,0.000000,0.000000,0.188028,0.263466,0.000000,0.081695,0.000000,145.000000,145.000000,0.000000,9.000000,0.000000,0.000000,0.000000,0.000000,0.000000;
#CREDIT:Basic;
#NOTES:
// measure 0
0000
0000
0000
0000
,  // measure 1
0001
0000
0100
0000
,  // measure 2
0001
0000
0010
0000
,  // measure 3
0001
0000
0100
0000
,  // measure 4
0001
0000
1000
0000
,  // measure 5
0001
1000
1000
1000
,  // measure 6
1000
0000
0000
1000
,  // measure 7
1000
1000
0000
0010
,  // measure 8
1000
0001
0000
0100
,  // measure 9
1000
0100
0000
0001
,  // measure 10
0001
0001
0000
0010
,  // measure 11
0000
1000
1000
1000
,  // measure 12
0002
0000
0000
0003
,  // measure 13
1000
0010
0000
1000
,  // measure 14
2000
0000
0000
0000
,  // measure 15
3000
0000
0000
1000
,  // measure 16
0000
0001
0000
0010
,  // measure 17
0000
1000
0100
0100
,  // measure 18
1000
0001
0100
0010
,  // measure 19
1000
0001
0100
0010
,  // measure 20
0002
0000
0000
0003
,  // measure 21
0000
1000
0000
0010
,  // measure 22
0000
1000
0000
0010
,  // measure 23
0001
0001
0000
0001
,  // measure 24
0000
0010
0000
1000
,  // measure 25
0000
0010
0100
0100
,  // measure 26
0000
0001
0000
2000
,  // measure 27
0000
3000
0010
0010
,  // measure 28
0000
0100
0000
1000
,  // measure 29
0000
0010
0000
0100
,  // measure 30
0100
0100
0000
1000
,  // measure 31
1000
1000
2000
3000
,  // measure 32
0000
1000
0000
0010
,  // measure 33
0000
1000
1000
1000
,  // measure 34
0010
0010
0010
0001
,  // measure 35
1000
1000
1000
1000
,  // measure 36
0020
0000
0000
0030
,  // measure 37
0001
0000
0001
0001
,  // measure 38
0000
1000
0001
0001
,  // measure 39
0001
2000
0000
0000
,  // measure 40
3000
0000
0001
0000
,  // measure 41
1000
0000
0010
0000
,  // measure 42
0002
0000
0000
0003
,  // measure 43
0001
0000
0010
0000
,  // measure 44
2000
0000
0000
0000
,  // measure 45
3000
0000
0001
0000
,  // measure 46
0000
0000
1000
0000
,  // measure 47
0000
0010
0010
0000
,  // measure 48
0000
0000
1000
1000
,  // measure 49
1000
0000
0010
0000
,  // measure 50
1000
0000
0000
0000
,  // measure 51
0010
0000
0001
0000
,  // measure 52
0010
0000
1000
0010
,  // measure 53
0010
0000
0100
0000
,  // measure 54
1000
0000
0010
0000
,  // measure 55
0100
0000
0001
0000
,  // measure 56
0010
0000
1000
0000
,  // measure 57
0010
0010
0010
0010
,  // measure 58
1000
1000
0000
1000
,  // measure 59
0001
0000
0010
0000
,  // measure 60
0100
0000
1000
0000
,  // measure 61
0010
0000
0100
0000
,  // measure 62
1000
0000
0010
0000
,  // measure 63
0100
0000
1000
0000
,  // measure 64
0010
0000
0001
0000
;
