#TITLE:Can't Help Falling In Love;
#SUBTITLE:Lilo & Stitch;
#ARTIST:Disney;
#TITLETRANSLIT:;
#SUBTITLETRANSLIT:;
#ARTISTTRANSLIT:;
#GENRE:;
#CREDIT:Gorilla v1.1.3 (Dancing Monkeys v1.06);
#BANNER:thumb-1920-806576.png;
#BACKGROUND:unnamed.png;
#LYRICSPATH:;
#CDTITLE:;
#MUSIC:Can't Help Falling In Love.mp3;
#OFFSET:-1.890833;
#SAMPLESTART:52.730423;
#SAMPLELENGTH:12.000000;
#SELECTABLE:YES;
#BPMS:0.000000=118.018272
;
#STOPS:
;
#BGCHANGES:;
#KEYSOUNDS:;
#ATTACKS:;

//---------------dance-single - Basic----------------
#NOTES:
     dance-single:
     Basic:
     Easy:
     3:
     0.125814,0.120143,0.000000,0.067746,0.000000,104.000000,104.000000,0.000000,8.000000,0.000000,0.000000,0.125814,0.120143,0.000000,0.067746,0.000000,104.000000,104.000000,0.000000,8.000000,0.000000,0.000000:
// measure 0
1000
0000
0010
0000
,  // measure 1
0100
0000
0001
0000
,  // measure 2
0010
0000
1000
0000
,  // measure 3
0000
0010
0000
0010
,  // measure 4
0000
0001
0000
0010
,  // measure 5
0000
0001
0000
0010
,  // measure 6
0000
1000
0000
0010
,  // measure 7
0000
0001
0000
0100
,  // measure 8
0000
0010
0000
0010
,  // measure 9
0000
1000
0000
0010
,  // measure 10
0000
0001
0000
0010
,  // measure 11
0000
1000
0000
0010
,  // measure 12
0000
0001
0000
0100
,  // measure 13
0000
0001
0000
0010
,  // measure 14
0000
1000
0000
0010
,  // measure 15
0000
0001
0000
0001
,  // measure 16
0000
0010
0000
0001
,  // measure 17
0000
0001
0000
0010
,  // measure 18
0000
1000
0000
1000
,  // measure 19
0000
0001
0000
0001
,  // measure 20
0000
1000
0000
1000
,  // measure 21
0000
0001
0000
0010
,  // measure 22
0000
1000
0000
1000
,  // measure 23
0000
0001
0000
0001
,  // measure 24
0000
0002
0000
0003
,  // measure 25
0000
2000
0000
3000
,  // measure 26
0000
0200
0000
0300
,  // measure 27
0000
1000
0000
1000
,  // measure 28
0000
1000
0000
0010
,  // measure 29
0000
0001
0000
0001
,  // measure 30
0000
1000
0000
0001
,  // measure 31
0000
0001
0000
0010
,  // measure 32
0000
1000
0000
1000
,  // measure 33
0000
0001
0000
0010
,  // measure 34
0000
0010
0000
0001
,  // measure 35
0000
0001
0000
0010
,  // measure 36
0000
1000
0000
1000
,  // measure 37
0000
0010
0000
0001
,  // measure 38
0000
1000
0000
0010
,  // measure 39
0000
1000
0000
0001
,  // measure 40
0000
0010
0000
0001
,  // measure 41
0000
0020
0000
0030
,  // measure 42
0000
0001
0000
0010
,  // measure 43
0000
0010
0000
0001
,  // measure 44
0000
0010
0000
0100
,  // measure 45
0000
0100
0000
0010
,  // measure 46
0000
2000
0000
3000
,  // measure 47
0000
0200
0000
0300
,  // measure 48
0000
2000
0000
3000
,  // measure 49
0000
0020
0000
0000
,  // measure 50
0000
0000
0000
0030
,  // measure 51
0000
0001
0000
0001
,  // measure 52
0000
0001
0000
0010
,  // measure 53
0000
1000
0000
1000
,  // measure 54
0000
0001
0000
1000
,  // measure 55
0000
0010
0000
1000
,  // measure 56
0000
0010
0000
1000
;

//---------------dance-single - Basic----------------
#NOTES:
     dance-single:
     :
     Medium:
     3:
     0.209287,0.309621,0.059278,0.169365,0.000000,173.000000,166.000000,7.000000,20.000000,0.000000,0.000000,0.209287,0.309621,0.059278,0.169365,0.000000,173.000000,166.000000,7.000000,20.000000,0.000000,0.000000:
2000
0000
3000
0000
,
0100
0000
0001
0000
,
0010
0000
1000
0000
,
0000
0010
0001
0010
,
1000
0001
0100
0010
,
0001
0001
0001
0010
,
0010
1000
1000
0010
,
0010
2002
0000
3003
,
0000
0010
0100
0010
,
0001
1000
0100
0010
,
1000
0001
1000
0010
,
0100
1000
0100
0010
,
0000
0001
0010
0100
,
1000
0002
0003
0010
,
0001
2000
3000
0020
,
0030
0001
0000
1000
,
0000
0010
1000
0001
,
1000
0001
0001
0010
,
0001
1000
0010
1000
,
1000
0001
1000
0010
,
0010
1000
0010
1000
,
1000
0002
0003
0010
,
0001
1000
0010
1000
,
0002
0003
1000
0001
,
0000
0002
0000
0003
,
0000
2000
0000
3000
,
0000
0200
0000
0300
,
0000
1000
1000
1000
,
1000
1000
1000
0010
,
0000
0001
0001
0001
,
0001
1001
1000
0001
,
1000
0001
0100
0010
,
0001
1000
0010
1000
,
1000
0001
0100
0010
,
1000
0010
1000
0001
,
1000
0001
0100
0010
,
0001
1000
0010
1000
,
1000
0010
1000
0002
,
0003
1000
0000
0010
,
0000
1000
0000
0001
,
0000
0020
0030
0001
,
0000
0020
0000
0030
,
0000
1001
0100
0010
,
1000
0020
0030
0001
,
1000
0002
0003
0100
,
0001
0100
0000
0010
,
0000
2000
0000
3000
,
0000
0200
0000
0300
,
0000
2000
0000
3000
,
0000
0020
0000
0000
,
0000
0000
0000
0030
,
0000
1001
1001
1001
,
1001
1000
0100
0010
,
0001
1000
0010
1000
,
0001
0001
0010
1000
,
0100
0010
0001
1000
,
0100
0010
0000
0000
;
