#TITLE:Calamity At The Door ft. @MaraxLen (Anne Boonchuy vs Luz Noceda);
#SUBTITLE:Amphibia vs The Owl House;
#ARTIST:Death Battle;
#TITLETRANSLIT:;
#SUBTITLETRANSLIT:;
#ARTISTTRANSLIT:;
#GENRE:;
#CREDIT:Gorilla v1.1.3 (Dancing Monkeys v1.06);
#BANNER:dfgrwb4-f8554e01-627d-47ed-a4db-84654c4a3297.png;
#BACKGROUND:maxresdefault.png;
#LYRICSPATH:;
#CDTITLE:;
#MUSIC:Calamity At The Door ft. @MaraxLen (Anne Boonchuy vs Luz Noceda).mp3;
#OFFSET:-0.486667;
#SAMPLESTART:34.772381;
#SAMPLELENGTH:12.000000;
#SELECTABLE:YES;
#BPMS:0.000000=175.000000
;
#STOPS:
;
#BGCHANGES:;
#KEYSOUNDS:;
#ATTACKS:;

//---------------dance-single - Basic----------------
#NOTES:
     dance-single:
     Basic:
     Easy:
     3:
     0.127773,0.205392,0.000000,0.092208,0.000000,194.000000,194.000000,0.000000,20.000000,0.000000,0.000000,0.127773,0.205392,0.000000,0.092208,0.000000,194.000000,194.000000,0.000000,20.000000,0.000000,0.000000:
1000
0000
0000
0000
,
0010
0000
0000
0000
,
1000
0000
0000
0000
,
0100
0000
0000
0000
,
0010
0000
0000
0000
,
1000
0000
0000
0000
,
1000
0000
0000
0000
,
0001
0000
0000
0000
,
0001
0000
0100
0000
,
0100
0000
1000
0000
,
0010
0000
0100
0000
,
1000
0000
1000
0000
,
0010
0000
1000
0000
,
0001
0000
0010
0000
,
0100
0000
1000
0000
,
0010
0000
0100
0000
,
0002
0000
0000
0003
,
2000
0000
0000
3000
,
0020
0000
0000
0030
,
0002
0000
0000
0003
,
2000
0000
3000
0002
,
0000
0000
0003
0000
,
2000
0000
0000
0000
,
0000
0000
0000
3000
,
0000
1000
1000
1000
,
1000
1000
1000
0000
,
0010
0010
0010
0010
,
0010
0010
0010
0010
,
0000
0001
0001
0001
,
0001
0001
0001
0000
,
0100
0100
0100
0100
,
0100
0100
0100
0000
,
0001
0000
0000
0000
,
1000
0000
0010
0000
,
0100
0000
0001
0000
,
1000
0000
0010
0000
,
1000
0000
0010
0000
,
0001
0000
0100
0000
,
0001
0000
0100
0000
,
0001
0000
0010
0000
,
1000
0000
0010
0000
,
1000
0000
0010
0000
,
0002
0000
0003
0000
,
1000
0000
0010
0000
,
2000
0000
3000
0000
,
0020
0000
0030
0002
,
0000
0000
0003
0000
,
2000
0000
0000
0000
,
0000
0000
3000
0000
,
0001
0000
0010
0000
,
0100
0000
0010
0000
,
0001
0000
1000
0000
,
0010
0000
0001
0000
,
0010
0000
1000
0000
,
0010
0000
0100
0000
,
0002
0000
0000
0000
,
0000
0000
0003
0000
,
1000
1000
1000
1000
,
1000
1000
1000
0000
,
0001
0000
0010
0000
,
0002
0000
0003
0000
,
0100
0000
0010
0000
,
0001
0000
1000
0000
,
2000
0000
0000
0000
,
0000
0000
3000
0000
,
0001
0000
0100
0000
,
2000
0000
3000
0000
,
0001
0000
0010
0000
,
0002
0000
0000
0003
,
0000
1000
0000
0010
,
0000
0001
0000
0010
,
0000
1000
0000
0002
,
0000
0000
0003
0000
,
1000
0000
0000
0000
,
0010
0000
0000
0000
,
0001
0000
0000
0000
,
1000
0000
0000
0000
,
0010
0000
0000
0000
,
0001
0000
0000
0000
,
1000
0000
0001
0001
,
0001
0000
0000
0000
,
0001
0001
0001
0001
,
0001
0001
0001
0000
,
1000
1000
1000
1000
,
1000
1000
1000
0000
,
0000
0010
0010
0010
,
0010
0010
0010
0000
,
0001
0001
0001
0001
,
0001
0001
0000
0000
,
2000
0000
3000
0000
,
0001
0001
0001
0001
,
0010
0010
0010
0010
,
1000
1000
1000
1000
,
0100
0100
0100
0100
,
0001
0001
0001
0001
,
1000
1000
1000
1000
,
0100
0100
0100
0100
,
1000
1000
1000
1000
,
0002
0000
0000
0000
,
0003
0000
0000
0000
;
