#TITLE:Burning;
#SUBTITLE:- Tekken;
#ARTIST:Unknown artist;
#TITLETRANSLIT:;
#SUBTITLETRANSLIT:;
#ARTISTTRANSLIT:;
#GENRE:;
#CREDIT:;
#BANNER:;
#BACKGROUND:;
#LYRICSPATH:;
#CDTITLE:;
#MUSIC:Burning (TEKKEN 6 BR Opening).mp3;
#OFFSET:0.000000;
#SAMPLESTART:100.000000;
#SAMPLELENGTH:12.000000;
#SELECTABLE:YES;
#BPMS:0.000000=113.000000
,49.000000=120.000000
;
#STOPS:-0.020833=0.800000
;
#BGCHANGES:;
#KEYSOUNDS:;
#ATTACKS:;

//---------------dance-single - ----------------
#NOTES:
     dance-single:
     :
     Easy:
     1:
     0.194388,0.199670,0.000000,0.050710,0.000000,161.000000,161.000000,0.000000,6.000000,0.000000,0.000000,0.194388,0.199670,0.000000,0.050710,0.000000,161.000000,161.000000,0.000000,6.000000,0.000000,0.000000:
// measure 0
0000
0000
0000
1000
0000
0000
0000
0100
,  // measure 1
0000
0000
0000
0000
0000
1000
0000
0000
,  // measure 2
0000
0010
0000
0000
0000
0100
0000
0000
,  // measure 3
0000
0001
0000
0000
0000
0010
0000
0000
,  // measure 4
0000
1000
0000
0000
0000
0100
0000
0000
,  // measure 5
0000
0001
0000
0000
0000
0100
0000
0000
,  // measure 6
0000
0001
0000
0000
0000
0010
0000
0000
,  // measure 7
0000
1000
0000
1000
0000
1000
0000
0100
,  // measure 8
0000
0100
0000
0001
0000
0001
0000
0000
,  // measure 9
0010
0000
0100
0000
,  // measure 10
1000
0000
0100
0000
,  // measure 11
0001
0000
0010
0000
,  // measure 12
0100
0010
1000
0010
,  // measure 13
0001
1000
1000
0010
,  // measure 14
0100
0001
1000
0010
,  // measure 15
0100
0001
0001
1000
,  // measure 16
0000
0001
1000
1000
,  // measure 17
0000
0001
0001
1000
,  // measure 18
0000
0001
0000
0010
,  // measure 19
0000
1000
0100
0100
,  // measure 20
0100
0010
0001
0001
,  // measure 21
0100
0100
0001
0100
,  // measure 22
0001
0100
0000
2000
,  // measure 23
0000
0000
0000
0000
,  // measure 24
3000
0001
0010
0100
,  // measure 25
0001
0010
0100
0010
,  // measure 26
0001
1000
0010
1000
,  // measure 27
0001
0010
0100
0001
,  // measure 28
1000
0001
0010
1000
,  // measure 29
0100
0010
0001
0010
,  // measure 30
1000
0100
0001
0010
,  // measure 31
0100
0001
1000
0010
,  // measure 32
0100
1000
0001
0010
,  // measure 33
0100
0001
1000
0010
,  // measure 34
0100
0001
1000
0010
,  // measure 35
0100
0001
1000
0010
,  // measure 36
0100
0001
0100
1000
,  // measure 37
0010
1000
0001
2000
,  // measure 38
0000
0000
3000
0001
,  // measure 39
0000
0001
0000
0100
,  // measure 40
0010
0100
0002
0000
,  // measure 41
1000
0003
0100
0000
,  // measure 42
0001
0100
0001
1000
,  // measure 43
0010
0100
0001
1000
,  // measure 44
0010
0100
0001
1000
,  // measure 45
0010
0100
0001
1000
,  // measure 46
0010
1000
0001
0010
,  // measure 47
1000
0100
0001
0010
,  // measure 48
1000
0010
0100
0002
,  // measure 49
0000
0003
0200
0000
,  // measure 50
0300
0002
0000
0000
,  // measure 51
0003
1000
0001
0010
,  // measure 52
0000
0000
0010
0000
;
