#TITLE:Bunny Party (English) - Schnuffel aka Snuggle Bunny singing the Jamster bunny song;
#SUBTITLE:;
#ARTIST:Dancing Monkeys Project;
#TITLETRANSLIT:;
#SUBTITLETRANSLIT:;
#ARTISTTRANSLIT:;
#GENRE:;
#CREDIT:Gorilla v1.1.3 (Dancing Monkeys v1.06);
#BANNER:maxresdefault.png;
#BACKGROUND:zbunnyparty.png;
#LYRICSPATH:;
#CDTITLE:;
#MUSIC:Bunny Party (English) - Schnuffel aka Snuggle Bunny singing the Jamster bunny song.mp3;
#OFFSET:-1.967914;
#SAMPLESTART:49.212811;
#SAMPLELENGTH:12.000000;
#SELECTABLE:YES;
#BPMS:0.000000=126.998001
;
#STOPS:
;
#BGCHANGES:;
#KEYSOUNDS:;
#ATTACKS:;

//---------------dance-single - Basic----------------
#NOTES:
     dance-single:
     Basic:
     Easy:
     4:
     0.205344,0.173507,0.000000,0.000000,0.000000,233.000000,233.000000,0.000000,0.000000,0.000000,0.000000,0.205344,0.173507,0.000000,0.000000,0.000000,233.000000,233.000000,0.000000,0.000000,0.000000,0.000000:
1000
0000
0010
0000
,
0100
0000
0001
0000
,
1000
0000
0010
0000
,
0100
0000
0001
0000
,
1000
0000
0010
0000
,
0100
0000
0001
0000
,
1000
0000
0100
0000
,
0001
0001
0010
0100
,
0010
0010
0010
0010
,
1000
0100
1000
0100
,
0100
0100
0100
0000
,
0001
1000
0100
0010
,
1000
0001
0100
0010
,
0001
1000
0100
0010
,
1000
0100
0010
0001
,
1000
0001
0100
0010
,
0001
1000
0100
0010
,
1000
0100
0010
0001
,
0001
0100
0010
1000
,
1000
0001
0100
0010
,
1000
0001
0100
0010
,
0001
1000
0010
0100
,
1000
0100
0010
0001
,
1000
0001
0100
0010
,
1000
0100
0010
0001
,
0100
1000
0100
0010
,
1000
0100
0010
0001
,
1000
0001
0100
0010
,
1000
0100
0010
0001
,
1000
0001
0100
0010
,
0001
1000
0100
0001
,
0010
0001
0010
0001
,
0001
1000
0100
1000
,
0100
1000
1000
0001
,
0001
1000
0100
0000
,
1000
0001
0100
0010
,
0001
1000
0010
0100
,
1000
0001
0100
0010
,
0001
1000
0100
0010
,
0001
1000
0010
0100
,
0001
1000
0100
0010
,
1000
0100
0010
0001
,
1000
0010
0100
0001
,
1000
0001
0100
0010
,
1000
0001
0010
0100
,
1000
0001
0100
0010
,
1000
0100
0010
0001
,
1000
0001
0100
0010
,
0001
1000
0100
0010
,
0001
1000
0100
0010
,
1000
0001
0100
0010
,
1000
0001
0010
0100
,
0001
1000
0010
0100
,
1000
0100
0010
0001
,
1000
0001
0100
0000
,
1000
1000
0010
0001
,
1000
1000
1000
1000
,
0010
0100
0010
0001
,
0010
0010
0010
0000
,
0001
1000
0100
0010
,
1000
0001
0100
0010
,
1000
0001
0100
0010
,
0010
1000
0010
0000
;

//---------------dance-single - Basic----------------
#NOTES:
     dance-single:
     :
     Beginner:
     4:
     0.110163,0.095236,0.000000,0.000000,0.000000,125.000000,125.000000,0.000000,0.000000,0.000000,0.000000,0.110163,0.095236,0.000000,0.000000,0.000000,125.000000,125.000000,0.000000,0.000000,0.000000,0.000000:
// measure 0
1000
0000
0010
0000
,  // measure 1
0100
0000
0001
0000
,  // measure 2
1000
0000
0010
0000
,  // measure 3
0100
0000
0001
0000
,  // measure 4
1000
0000
0010
0000
,  // measure 5
0100
0000
0001
0000
,  // measure 6
1000
0000
0100
0000
,  // measure 7
0001
0000
0010
0000
,  // measure 8
0010
0000
0100
0000
,  // measure 9
0001
0000
1000
0000
,  // measure 10
0010
0000
0100
0000
,  // measure 11
0001
0000
0100
0000
,  // measure 12
1000
0000
0100
0000
,  // measure 13
0001
1000
0000
0010
,  // measure 14
0000
0100
0000
0010
,  // measure 15
0000
0001
0000
0010
,  // measure 16
0000
1000
0000
0010
,  // measure 17
0000
0100
0000
0001
,  // measure 18
0000
0100
0000
1000
,  // measure 19
0000
0001
0000
0010
,  // measure 20
0000
0001
0000
0010
,  // measure 21
0000
1000
0000
0100
,  // measure 22
0000
0100
0000
0010
,  // measure 23
0000
0001
0000
0010
,  // measure 24
0000
0100
0000
0001
,  // measure 25
0000
1000
0000
0010
,  // measure 26
0000
0100
0000
0010
,  // measure 27
0000
0001
0000
0010
,  // measure 28
0000
0100
0000
0010
,  // measure 29
0000
0001
0000
0010
,  // measure 30
0000
1000
0000
0010
,  // measure 31
0000
0100
0000
0001
,  // measure 32
0000
0010
0000
0100
,  // measure 33
0000
1000
0000
0001
,  // measure 34
0000
1000
0000
0010
,  // measure 35
0000
0001
0000
0010
,  // measure 36
0000
1000
0000
0100
,  // measure 37
0000
0001
0000
0010
,  // measure 38
0000
1000
0000
0010
,  // measure 39
0000
1000
0000
0100
,  // measure 40
0000
1000
0000
0010
,  // measure 41
0000
0100
0000
0001
,  // measure 42
0000
0010
0000
0001
,  // measure 43
0000
0001
0000
0010
,  // measure 44
0000
0001
0000
0100
,  // measure 45
0000
0001
0000
0010
,  // measure 46
0000
0100
0000
0001
,  // measure 47
0000
0001
0000
0010
,  // measure 48
0000
1000
0000
0010
,  // measure 49
0000
1000
0000
0010
,  // measure 50
0000
0001
0000
0010
,  // measure 51
0000
0001
0000
0100
,  // measure 52
0000
1000
0000
0100
,  // measure 53
0000
0100
0000
0001
,  // measure 54
0000
0001
0000
0010
,  // measure 55
0000
1000
0000
0001
,  // measure 56
0000
0100
0000
1000
,  // measure 57
0000
0100
0000
0001
,  // measure 58
0000
0100
0000
0010
,  // measure 59
0000
1000
0000
0010
,  // measure 60
0000
0001
0000
0010
,  // measure 61
0000
0001
0000
0010
;
