#VERSION:0.83;
#TITLE:BRAINS! (from Billy & Mandy);
#SUBTITLE:;
#ARTIST:Cartoonnetwork;
#TITLETRANSLIT:;
#SUBTITLETRANSLIT:;
#ARTISTTRANSLIT:;
#GENRE:;
#ORIGIN:;
#CREDIT:Gorilla v1.1.3 (Dancing Monkeys v1.06);
#BANNER:;
#BACKGROUND:;
#PREVIEWVID:;
#JACKET:;
#CDIMAGE:;
#DISCIMAGE:;
#LYRICSPATH:;
#CDTITLE:;
#MUSIC:BRAINS! (from the Cartoon Network's GRIM AND EVIL).mp3;
#OFFSET:-1.081859;
#SAMPLESTART:31.308619;
#SAMPLELENGTH:12.000000;
#SELECTABLE:YES;
#BPMS:0.000=162.000;
#STOPS:;
#DELAYS:;
#WARPS:;
#TIMESIGNATURES:0.000=4=4;
#TICKCOUNTS:0.000=4;
#COMBOS:0.000=1;
#SPEEDS:0.000=1.000=0.000=0;
#SCROLLS:0.000=1.000;
#FAKES:;
#LABELS:0.000=Song Start;
#BGCHANGES:;
#KEYSOUNDS:;
#ATTACKS:
;

//---------------dance-single - Basic----------------
#NOTEDATA:;
#CHARTNAME:Basic;
#STEPSTYPE:dance-single;
#DESCRIPTION:Basic;
#CHARTSTYLE:;
#DIFFICULTY:Easy;
#METER:3;
#RADARVALUES:0.126523,0.188757,0.000000,0.132849,0.000000,140.000000,140.000000,0.000000,21.000000,0.000000,0.000000,0.000000,0.000000,0.000000,0.126523,0.188757,0.000000,0.132849,0.000000,140.000000,140.000000,0.000000,21.000000,0.000000,0.000000,0.000000,0.000000,0.000000;
#CREDIT:Basic;
#NOTES:
// measure 0
0002
0000
0000
0003
,  // measure 1
0000
0200
0000
0000
,  // measure 2
0000
0000
0300
0000
,  // measure 3
0002
0000
0000
0003
,  // measure 4
0000
2000
0000
0000
,  // measure 5
3000
0020
0000
0000
,  // measure 6
0000
0000
0030
0000
,  // measure 7
1000
0000
0001
0000
,  // measure 8
1000
0000
0010
0000
,  // measure 9
0001
0000
0010
0000
,  // measure 10
1000
0000
0010
0000
,  // measure 11
0001
0000
0010
0000
,  // measure 12
1000
0000
0010
0000
,  // measure 13
1000
0000
0010
0000
,  // measure 14
0100
0000
0001
0000
,  // measure 15
0001
0000
0010
0000
,  // measure 16
0010
0000
1000
0000
,  // measure 17
2000
0000
0000
0000
,  // measure 18
3000
0000
0020
0000
,  // measure 19
0000
0000
0030
0000
,  // measure 20
0000
2000
0000
0000
,  // measure 21
0000
0000
3000
0000
,  // measure 22
0002
0000
0000
0000
,  // measure 23
0003
0000
0100
0000
,  // measure 24
0001
0000
1000
0000
,  // measure 25
0001
0000
0010
0000
,  // measure 26
1000
0000
0010
0000
,  // measure 27
0001
0001
0000
0001
,  // measure 28
0001
0000
2000
0000
,  // measure 29
0000
3000
0000
0100
,  // measure 30
0000
0010
0000
0000
,  // measure 31
0000
0001
0000
1000
,  // measure 32
1000
0000
0001
0000
,  // measure 33
0001
0000
1000
1000
,  // measure 34
0000
0010
0010
0000
,  // measure 35
0001
0000
0001
0000
,  // measure 36
0001
0001
0000
0200
,  // measure 37
0000
0300
0100
0000
,  // measure 38
0000
0002
0000
0003
,  // measure 39
0000
1000
0000
0000
,  // measure 40
0001
0000
0000
1000
,  // measure 41
0000
0000
0010
0000
,  // measure 42
1000
0000
0001
0001
,  // measure 43
0000
1000
1000
1000
,  // measure 44
1000
1000
0000
0000
,  // measure 45
0001
0001
0001
0001
,  // measure 46
0000
1000
0000
1000
,  // measure 47
0000
0001
0000
0010
,  // measure 48
0000
1000
0000
0010
,  // measure 49
0000
0100
0000
0001
,  // measure 50
0000
1000
0000
1000
,  // measure 51
0000
0002
0000
0000
,  // measure 52
0000
0000
0003
0000
,  // measure 53
2000
0000
0000
0000
,  // measure 54
3000
0000
0000
0020
,  // measure 55
0000
0000
0000
0000
,  // measure 56
0030
0000
2000
0000
,  // measure 57
0000
0000
3000
0000
,  // measure 58
0020
0000
0030
0000
,  // measure 59
0001
0000
1000
0000
,  // measure 60
0000
1000
0000
0001
,  // measure 61
0000
0010
0000
0000
,  // measure 62
1000
0000
0000
0001
,  // measure 63
0000
0010
0000
1000
,  // measure 64
1000
0000
2000
0000
,  // measure 65
0000
0000
3000
0000
,  // measure 66
0000
0010
1000
0000
,  // measure 67
1000
0001
0000
0000
,  // measure 68
0001
1000
0000
0001
,  // measure 69
0000
0010
0000
1000
,  // measure 70
0000
0100
0000
0000
,  // measure 71
1000
0000
0001
0000
,  // measure 72
0001
0000
0000
1000
,  // measure 73
0010
0000
0010
0100
,  // measure 74
0000
0010
0000
0010
,  // measure 75
0000
1000
0000
0000
,  // measure 76
1000
0010
0000
1000
,  // measure 77
1000
0000
1000
1000
,  // measure 78
1000
0000
0000
0001
,  // measure 79
0000
2000
0000
3000
,  // measure 80
0001
0000
0000
0020
,  // measure 81
0000
0000
0030
0010
,  // measure 82
0010
0000
2000
0000
,  // measure 83
3000
1000
0000
0000
,  // measure 84
1000
0000
0001
0000
,  // measure 85
0001
1000
0000
0000
;
