#VERSION:0.83;
#TITLE:Boys 12;
#SUBTITLE:;
#ARTIST:Dancing Monkeys Project;
#TITLETRANSLIT:;
#SUBTITLETRANSLIT:;
#ARTISTTRANSLIT:;
#GENRE:;
#ORIGIN:;
#CREDIT:Gorilla v1.1.3 (Dancing Monkeys v1.06);
#BANNER:8d3540b83030e80bc6a29dc5678cf6ba_1280x720.png;
#BACKGROUND:hq720.png;
#PREVIEWVID:;
#JACKET:;
#CDIMAGE:;
#DISCIMAGE:;
#LYRICSPATH:;
#CDTITLE:;
#MUSIC:Boys 12.mp3;
#OFFSET:-1.394830;
#SAMPLESTART:52.238369;
#SAMPLELENGTH:12.000000;
#SELECTABLE:YES;
#BPMS:0.000=118.009;
#STOPS:;
#DELAYS:;
#WARPS:;
#TIMESIGNATURES:0.000=4=4;
#TICKCOUNTS:0.000=4;
#COMBOS:0.000=1;
#SPEEDS:0.000=1.000=0.000=0;
#SCROLLS:0.000=1.000;
#FAKES:;
#LABELS:0.000=Song Start;
#BGCHANGES:;
#KEYSOUNDS:;
#ATTACKS:
;

//---------------dance-single - Basic----------------
#NOTEDATA:;
#CHARTNAME:Basic;
#STEPSTYPE:dance-single;
#DESCRIPTION:Basic;
#CHARTSTYLE:;
#DIFFICULTY:Easy;
#METER:3;
#RADARVALUES:0.181773,0.192790,0.000000,0.038558,0.000000,132.000000,132.000000,0.000000,4.000000,0.000000,0.000000,0.000000,0.000000,0.000000,0.181773,0.192790,0.000000,0.038558,0.000000,132.000000,132.000000,0.000000,4.000000,0.000000,0.000000,0.000000,0.000000,0.000000;
#CREDIT:Basic;
#NOTES:
0000
0001
0000
1000
,
1000
0000
0010
0000
,
0001
0000
0100
0000
,
0001
0000
0001
0001
,
0000
1000
0001
0100
,
0001
1000
0100
0000
,
0000
0001
0000
1000
,
0000
0001
1000
1000
,
0000
1000
0001
0100
,
0000
1000
0001
0100
,
0001
1000
0000
0010
,
0001
1000
0001
0000
,
0000
1000
0001
0100
,
1000
0000
0100
0000
,
0000
0001
0000
1000
,
0000
1000
0001
0001
,
0000
0001
0000
1000
,
0000
1000
0001
0100
,
1000
0000
0100
0000
,
0000
1000
0001
0100
,
0000
1000
0000
0010
,
0001
1000
0001
0001
,
0000
0001
0000
1000
,
0000
1000
0001
0100
,
0000
1000
0001
0100
,
0001
0010
2000
0000
,
3000
0100
0010
1000
,
1000
0010
0000
1000
,
0001
0000
0100
0000
,
0001
0000
0100
0010
,
0000
1000
0001
0100
,
1000
0000
0100
0000
,
0001
0100
0001
0000
,
0001
1000
2000
0000
,
3000
0100
0010
1000
,
0001
0000
0000
0000
,
0010
0000
0001
0001
,
0000
1000
0001
0100
,
0001
1000
0001
0001
,
0000
0001
0000
1000
,
1000
0010
0100
1000
,
0000
1000
0001
0100
,
0001
0000
2000
0000
,
3000
0100
0010
1000
,
1000
0000
0010
0000
,
0001
0000
0100
0000
,
1000
0000
0010
1000
,
0000
1000
0000
0010
,
0001
0000
1000
0000
,
1000
2000
0000
0000
,
3000
0000
0000
0000
;

//---------------dance-single - Basic----------------
#NOTEDATA:;
#CHARTNAME:;
#STEPSTYPE:dance-single;
#DESCRIPTION:Basic;
#CHARTSTYLE:;
#DIFFICULTY:Beginner;
#METER:3;
#RADARVALUES:0.123936,0.119289,0.000000,0.000000,0.000000,90.000000,90.000000,0.000000,0.000000,0.000000,0.000000,0.000000,0.000000,0.000000,0.123936,0.119289,0.000000,0.000000,0.000000,90.000000,90.000000,0.000000,0.000000,0.000000,0.000000,0.000000,0.000000,0.000000;
#CREDIT:;
#NOTES:
0000
0001
0000
1000
,
0000
0000
0010
0000
,
0001
0000
0100
0000
,
0001
0000
0001
0000
,
0000
1000
0000
0100
,
0000
1000
0000
0010
,
0000
0001
0000
1000
,
0000
0001
0000
1000
,
0000
1000
0000
0100
,
0000
1000
0000
0100
,
0000
1000
0000
0010
,
0000
1000
0000
0010
,
0000
1000
0000
0100
,
0000
0000
0100
0000
,
0000
0001
0000
1000
,
0000
1000
0000
0001
,
0000
0001
0000
1000
,
0000
1000
0000
0100
,
0000
0000
0100
0000
,
0000
1000
0000
0100
,
0000
1000
0000
0010
,
0000
1000
0000
0001
,
0000
0001
0000
1000
,
0000
1000
0000
0100
,
0000
1000
0000
0100
,
0000
0010
0000
0000
,
0000
0100
0000
1000
,
0000
0010
0000
1000
,
0000
0000
0100
0000
,
0001
0000
0100
0000
,
0000
1000
0000
0100
,
0000
0000
0100
0000
,
0001
0000
1000
0000
,
0001
0000
1000
0000
,
0000
0100
0000
1000
,
0000
0000
0000
0000
,
0010
0000
0001
0000
,
0010
0000
1000
0000
,
0010
0000
1000
0000
,
0010
0000
0001
0000
,
1000
0000
0010
0000
,
0100
0000
1000
0000
,
0010
0000
1000
0000
,
0000
0100
0000
1000
,
0000
0000
0010
0000
,
0001
0000
0100
0000
,
1000
0000
0010
0000
,
0000
1000
0000
0010
,
0000
0000
1000
0000
,
1000
0000
1000
0000
;

//---------------dance-single - Basic----------------
#NOTEDATA:;
#CHARTNAME:;
#STEPSTYPE:dance-single;
#DESCRIPTION:Basic;
#CHARTSTYLE:;
#DIFFICULTY:Medium;
#METER:3;
#RADARVALUES:0.238233,0.216888,0.000000,0.077116,0.000000,173.000000,173.000000,0.000000,8.000000,0.000000,0.000000,0.000000,0.000000,0.000000,0.238233,0.216888,0.000000,0.077116,0.000000,173.000000,173.000000,0.000000,8.000000,0.000000,0.000000,0.000000,0.000000,0.000000;
#CREDIT:;
#NOTES:
// measure 0
0000
0001
0000
1000
,  // measure 1
1000
0000
0010
0000
,  // measure 2
0001
0000
0100
0000
,  // measure 3
0001
0000
0001
0001
,  // measure 4
0001
1000
0001
0100
,  // measure 5
0001
1000
0100
0001
,  // measure 6
0010
0001
1000
1000
,  // measure 7
1000
0001
1000
1000
,  // measure 8
0010
1000
0001
0100
,  // measure 9
0100
1000
0001
0100
,  // measure 10
0001
1000
0010
0010
,  // measure 11
0010
1000
0002
0000
,  // measure 12
0003
1000
0001
0100
,  // measure 13
2000
3000
1000
0010
,  // measure 14
0100
0001
0010
1000
,  // measure 15
0010
1000
0001
0001
,  // measure 16
0100
0001
0010
1000
,  // measure 17
0100
1000
0001
0100
,  // measure 18
1000
0001
0100
0010
,  // measure 19
0010
1000
0001
0100
,  // measure 20
0001
1000
0010
0010
,  // measure 21
0001
1000
0001
0001
,  // measure 22
1000
0001
0001
1000
,  // measure 23
0010
1000
0002
0000
,  // measure 24
0000
0003
0001
0100
,  // measure 25
0001
0010
0002
0000
,  // measure 26
0003
0100
0010
1000
,  // measure 27
1000
0010
0010
1000
,  // measure 28
0001
0001
0100
0100
,  // measure 29
0001
0001
0100
0010
,  // measure 30
0100
1000
0001
0100
,  // measure 31
1000
1000
0100
0010
,  // measure 32
0001
0100
0001
0010
,  // measure 33
0001
1000
2000
0000
,  // measure 34
3000
0100
0010
1000
,  // measure 35
0001
1000
0002
0000
,  // measure 36
0000
0003
0001
0001
,  // measure 37
0010
1000
0001
0100
,  // measure 38
0001
1000
0001
0001
,  // measure 39
0100
0001
0001
1000
,  // measure 40
1000
0010
0100
1000
,  // measure 41
0010
1000
0001
0100
,  // measure 42
0001
0000
2000
0000
,  // measure 43
3000
0100
0010
1000
,  // measure 44
1000
0100
0010
0010
,  // measure 45
0001
0010
0100
0001
,  // measure 46
1000
0100
0010
1000
,  // measure 47
0001
1000
0100
0010
,  // measure 48
0001
0000
1000
0000
,  // measure 49
0010
2000
0000
0000
,  // measure 50
3000
0000
0000
0000
;
