#VERSION:0.83;
#TITLE:Big Time Rush - Any Kind Of Guy;
#SUBTITLE:;
#ARTIST:Dancing Monkeys Project;
#TITLETRANSLIT:;
#SUBTITLETRANSLIT:;
#ARTISTTRANSLIT:;
#GENRE:;
#ORIGIN:;
#CREDIT:Gorilla v1.1.3 (Dancing Monkeys v1.06);
#BANNER:;
#BACKGROUND:;
#PREVIEWVID:;
#JACKET:;
#CDIMAGE:;
#DISCIMAGE:;
#LYRICSPATH:;
#CDTITLE:;
#MUSIC:Big Time Rush - Boyfriend [ Lyrics ].mp3;
#OFFSET:-1.963016;
#SAMPLESTART:55.534447;
#SAMPLELENGTH:12.000000;
#SELECTABLE:YES;
#BPMS:0.000=112.000;
#STOPS:;
#DELAYS:;
#WARPS:;
#TIMESIGNATURES:0.000=4=4;
#TICKCOUNTS:0.000=4;
#COMBOS:0.000=1;
#SPEEDS:0.000=2.000=0.000=0;
#SCROLLS:0.000=1.000;
#FAKES:;
#LABELS:0.000=Song Start;
#BGCHANGES:;
#KEYSOUNDS:;
#ATTACKS:
;

//---------------dance-single - Basic----------------
#NOTEDATA:;
#CHARTNAME:Basic;
#STEPSTYPE:dance-single;
#DESCRIPTION:Basic;
#CHARTSTYLE:;
#DIFFICULTY:Easy;
#METER:3;
#RADARVALUES:0.219828,0.206467,0.000000,0.000000,0.000000,218.000000,218.000000,0.000000,0.000000,0.000000,0.000000,0.000000,0.000000,0.000000,0.219828,0.206467,0.000000,0.000000,0.000000,218.000000,218.000000,0.000000,0.000000,0.000000,0.000000,0.000000,0.000000,0.000000;
#CREDIT:Basic;
#NOTES:
// measure 0
0001
1000
0000
0010
,  // measure 1
0000
0001
0010
0001
,  // measure 2
0000
1000
0001
0100
,  // measure 3
0001
0010
0000
0100
,  // measure 4
0001
1000
0000
0010
,  // measure 5
0001
0010
0000
0100
,  // measure 6
0000
1000
0001
0100
,  // measure 7
0001
1000
0000
0100
,  // measure 8
0000
0001
0010
0100
,  // measure 9
0000
1000
0010
1000
,  // measure 10
0000
0001
0010
0100
,  // measure 11
0001
1000
0000
0100
,  // measure 12
0000
0001
0010
0100
,  // measure 13
0000
0001
0010
0001
,  // measure 14
0000
0001
1000
0010
,  // measure 15
0000
0001
1000
0001
,  // measure 16
0001
0001
1000
0010
,  // measure 17
0000
1000
0100
0010
,  // measure 18
0001
1000
0000
0100
,  // measure 19
0000
1000
0001
0100
,  // measure 20
1000
0001
0100
0100
,  // measure 21
0000
1000
0100
0010
,  // measure 22
0000
1000
0001
0010
,  // measure 23
1000
0100
0010
0001
,  // measure 24
0001
0001
1000
0010
,  // measure 25
0001
0100
0100
0010
,  // measure 26
0001
0010
0010
0100
,  // measure 27
0001
1000
0000
0100
,  // measure 28
1000
0100
0010
0001
,  // measure 29
0001
0100
0100
0010
,  // measure 30
1000
0001
0100
0100
,  // measure 31
0001
0100
0100
0010
,  // measure 32
0010
1000
0010
0000
,  // measure 33
0001
1000
0000
0000
,  // measure 34
0000
0001
1000
0010
,  // measure 35
0000
1000
0010
1000
,  // measure 36
1000
0100
0010
0001
,  // measure 37
0001
0010
0000
0100
,  // measure 38
0000
1000
0010
0100
,  // measure 39
0000
1000
0001
0010
,  // measure 40
0001
0100
0010
0100
,  // measure 41
0000
0001
0010
0100
,  // measure 42
0001
1000
0000
0100
,  // measure 43
0000
0001
0010
0100
,  // measure 44
0001
1000
0000
0100
,  // measure 45
0000
0001
0010
0001
,  // measure 46
0000
1000
0010
1000
,  // measure 47
0000
1000
0001
0010
,  // measure 48
1000
0001
0100
0100
,  // measure 49
0100
1000
1000
0010
,  // measure 50
0000
1000
0100
0010
,  // measure 51
1000
0010
0100
0010
,  // measure 52
0000
1000
0001
0100
,  // measure 53
1000
0001
0100
0100
,  // measure 54
0000
1000
0100
0010
,  // measure 55
1000
0001
0100
0100
,  // measure 56
1000
0001
0010
0010
,  // measure 57
1000
0100
0010
0001
,  // measure 58
0001
1000
0000
0100
,  // measure 59
1000
0000
0010
1000
,  // measure 60
0001
1000
0000
0100
,  // measure 61
1000
0001
0100
0100
,  // measure 62
1000
0100
1000
1000
,  // measure 63
0001
0100
0100
0010
,  // measure 64
1000
0001
0010
0100
,  // measure 65
0010
0000
0000
0000
;

//---------------dance-single - Standard----------------
#NOTEDATA:;
#CHARTNAME:Standard;
#STEPSTYPE:dance-single;
#DESCRIPTION:Standard;
#CHARTSTYLE:;
#DIFFICULTY:Medium;
#METER:4;
#RADARVALUES:0.271256,0.269996,0.042352,0.000000,0.000000,269.000000,263.000000,6.000000,0.000000,0.000000,0.000000,0.000000,0.000000,0.000000,0.271256,0.269996,0.042352,0.000000,0.000000,269.000000,263.000000,6.000000,0.000000,0.000000,0.000000,0.000000,0.000000,0.000000;
#CREDIT:Standard;
#NOTES:
0001
0000
1000
0000
0010
0000
1000
0000
,
1000
0000
0010
0000
0100
0000
0001
0000
,
0001
0000
1000
0000
0010
0000
0100
0000
,
0001
0000
0010
0000
0100
0000
1000
0000
,
0001
0000
1000
0000
0010
0000
1000
0000
,
0001
0000
0010
0000
0100
0000
1000
0000
,
0001
0000
1000
0000
0010
0000
0100
0000
,
1000
0000
0010
0000
1000
0000
0100
0000
,
0000
0000
1000
0000
0100
0000
0001
0000
,
0001
0000
0100
0000
0010
0000
0100
0000
,
0000
0000
1000
0000
0100
0000
0001
0000
,
1000
0000
0010
0000
1000
0000
0100
0000
,
0000
0000
1000
0000
0100
0000
0001
0000
,
1000
0000
0010
0000
1000
0000
0100
0000
,
0001
0000
1000
0000
0100
0000
1000
0000
,
0001
0000
0100
0000
0010
0000
1010
0000
,
1100
0000
1000
0000
0010
0000
0001
0001
,
0001
0000
0010
0000
0001
0000
1000
0000
,
1000
0000
0001
0000
0100
0000
1000
0000
,
0001
0000
1000
0000
0010
0000
0100
0000
,
1000
0000
0001
0000
0010
0010
0010
0000
,
0001
0000
0010
0000
0001
0000
1000
0000
,
0001
0000
0100
0000
0010
0000
0001
0000
,
1000
0100
1000
0000
0010
0000
0100
0000
,
0011
0000
0001
0000
0100
0100
0010
0000
,
0001
0000
1000
0000
1000
0000
0010
0000
,
0001
0000
1000
0000
1000
0000
0100
0000
,
1000
0000
0001
0000
0100
0000
1000
0000
,
1000
0100
1000
0000
0010
0000
0100
0000
,
0001
0000
1000
0000
1000
0000
0010
0000
,
1000
0000
0001
0000
0010
0010
0010
0000
,
0001
0000
1000
0000
1000
0000
0010
0000
,
0101
0000
1000
0000
0100
0000
0010
0000
,
0001
0000
1000
0000
0000
0000
0000
0000
,
0001
0000
1000
0000
0100
0000
1000
0000
,
1000
0000
0100
0000
1000
0000
0010
0000
,
1000
0100
1000
0000
0010
0000
0100
0000
,
0001
0000
0010
0000
0100
0000
1000
0000
,
0000
0000
0001
0000
0100
0000
0001
0000
,
0001
0000
0100
0000
0010
0000
0001
0000
,
0001
0000
0100
0000
0010
0000
1000
0000
,
0000
0000
1000
0000
0100
0000
0001
0000
,
1000
0000
0001
0000
0100
0000
1000
0000
,
0000
0000
1000
0000
0100
0000
0001
0000
,
1000
0000
0001
0000
0100
0000
1000
0000
,
1000
0000
0010
0000
0100
0000
0001
0000
,
1000
0000
0010
0000
0100
0000
0001
0000
,
0001
0000
0100
0000
0010
0000
0001
0000
,
1000
0000
0001
0000
0010
0010
0010
0000
,
1100
0000
1000
0000
0010
0000
0001
0001
,
0001
0000
0010
0000
0001
0000
1000
0000
,
1000
0000
1010
0000
0100
0000
0010
0000
,
0001
0000
1000
0000
0010
0000
0100
0000
,
1000
0000
0001
0000
0010
0010
0010
0000
,
0001
0000
0010
0000
0001
0000
1000
0000
,
1000
0000
0001
0000
0010
0010
0010
0000
,
0001
0000
1000
0000
0010
0010
0010
0000
,
1000
0100
1000
0000
0010
0000
0100
0000
,
1000
0000
0001
0000
0100
0000
1000
0000
,
0001
0000
0100
0000
0001
0000
0100
0000
,
1000
0000
0001
0000
0100
0000
1000
0000
,
1000
0000
0001
0000
0010
0010
0010
0000
,
1000
0100
1000
0000
0100
0000
0100
0000
,
0001
0000
1000
0000
1000
0000
0010
0000
,
;

//---------------dance-single - Heavy----------------
#NOTEDATA:;
#CHARTNAME:Heavy;
#STEPSTYPE:dance-single;
#DESCRIPTION:Heavy;
#CHARTSTYLE:;
#DIFFICULTY:Hard;
#METER:5;
#RADARVALUES:0.305541,0.315612,0.042352,0.000000,0.000000,303.000000,297.000000,6.000000,0.000000,0.000000,0.000000,0.000000,0.000000,0.000000,0.305541,0.315612,0.042352,0.000000,0.000000,303.000000,297.000000,6.000000,0.000000,0.000000,0.000000,0.000000,0.000000,0.000000;
#CREDIT:Heavy;
#NOTES:
1000
0000
0100
0000
1000
0000
0010
0000
,
0000
0000
0001
0000
1000
0001
0100
0000
,
1000
0000
0001
0000
0100
0000
0010
0000
,
0001
0000
0100
0000
0001
0000
1000
0000
,
1000
0000
0100
0000
1000
0000
0010
0000
,
0001
0000
0100
0000
0001
0000
1000
0000
,
1000
0000
0001
0000
0100
0000
0010
0000
,
0001
0000
1000
0000
0001
0100
0001
0000
,
0000
0000
0001
0000
1000
0010
0100
0000
,
0000
0000
0001
0000
0010
0001
0010
0000
,
0000
0000
0001
0000
1000
0010
0100
0000
,
0001
0000
1000
0000
0001
0100
0001
0000
,
0000
0000
0001
0000
1000
0010
0100
0000
,
0000
0000
1000
0000
0100
0001
0100
0000
,
0000
0000
0001
0000
0010
0100
0010
0000
,
1000
0000
0010
0000
0100
0000
1001
0000
,
1010
0000
0001
0000
1000
1000
0001
0001
,
0001
0000
0100
0000
0001
0000
1000
0000
,
1000
0000
0100
0000
1000
0001
0100
0000
,
1000
0000
0001
0000
0100
0000
0010
0000
,
1000
0000
0100
0000
0010
0010
0010
0100
,
0001
0000
0100
0000
0001
0000
1000
0000
,
0000
0000
0001
0010
0001
0010
0100
0000
,
1000
0001
1000
0000
0100
0000
1000
0000
,
0101
0000
1000
0001
0100
0100
0010
0000
,
1000
0000
0100
0000
0100
0000
0010
0001
,
0001
0000
0010
0000
0010
0000
0100
1000
,
1000
0000
0100
0000
1000
0001
0100
0000
,
1000
0001
1000
0000
0100
0000
1000
0000
,
1000
0000
0100
0000
0100
0000
0010
0001
,
1000
0000
0100
0000
0010
0010
0010
0100
,
1000
0000
0100
0000
0100
0000
0010
0000
,
1100
0000
0001
0000
0100
0000
0000
0001
,
1000
0000
0010
0000
0000
0000
1000
0000
,
0000
0000
0001
0000
0010
0100
0010
0000
,
0000
0000
1000
0000
0100
0001
0100
1000
,
1000
0001
1000
0000
0100
0000
1000
0000
,
0001
0000
0100
0000
0001
0000
1000
0000
,
0000
0000
0001
0000
1000
0000
0100
0000
,
0000
0000
0001
0010
0001
0010
0100
0000
,
0001
0000
0010
0000
0001
0010
0100
0000
,
0000
0000
0001
0000
1000
0010
0100
0000
,
1000
0000
0100
0000
1000
0001
0100
0000
,
0000
0000
0001
0000
1000
0010
0100
0000
,
1000
0000
0100
0000
1000
0001
0100
0000
,
0000
0000
0001
0000
1000
0001
0100
0000
,
0000
0000
0001
0000
1000
0001
0100
0000
,
0000
0000
0001
0010
0001
0010
0100
0000
,
1000
0000
0100
0000
0010
0010
0010
0000
,
1010
0000
0001
0000
1000
1000
0001
0001
,
0001
0000
0100
0000
0001
0000
1000
0000
,
0001
0000
0101
0000
0010
0000
0100
0000
,
1000
0000
0001
0000
0100
0000
0010
0000
,
1000
0000
0100
0000
0010
0010
0010
0100
,
0001
0000
0100
0000
0001
0000
1000
0000
,
1000
0000
0100
0000
0010
0010
0010
0100
,
0001
0000
0010
0000
0100
0100
0100
0010
,
1000
0001
1000
0000
0100
0000
1000
0000
,
1000
0000
0100
0000
1000
0001
0100
0000
,
0001
0000
0100
0001
1000
0000
0001
0000
,
1000
0000
0100
0000
1000
0001
0100
0000
,
1000
0000
0100
0000
0010
0010
0010
0100
,
1000
0100
0010
0000
0100
0000
0100
1000
,
1000
0000
0100
0000
0100
0000
0010
0001
,
;
