#TITLE:Boy Is A Liar;
#SUBTITLE:;
#ARTIST:Dancing Monkeys Project;
#TITLETRANSLIT:;
#SUBTITLETRANSLIT:;
#ARTISTTRANSLIT:;
#GENRE:;
#CREDIT:Gorilla v1.1.3 (Dancing Monkeys v1.06);
#BANNER:download.png;
#BACKGROUND:download - Copy.png;
#LYRICSPATH:;
#CDTITLE:;
#MUSIC:PinkPantheress & Ice Spice - Boys a liar Pt. 2.mp3;
#OFFSET:-0.234172;
#SAMPLESTART:45.347549;
#SAMPLELENGTH:12.000000;
#SELECTABLE:YES;
#BPMS:0.000000=132.998001
;
#STOPS:
;
#BGCHANGES:;
#KEYSOUNDS:;
#ATTACKS:;

//---------------dance-single - Basic----------------
#NOTES:
     dance-single:
     Basic:
     Easy:
     5:
     0.320327,0.349500,0.183044,0.000000,0.000000,294.000000,270.000000,24.000000,0.000000,0.000000,0.000000,0.320327,0.349500,0.183044,0.000000,0.000000,294.000000,270.000000,24.000000,0.000000,0.000000,0.000000:
1000
0100
0010
0000
,
0001
0010
0100
0000
,
1000
0010
0100
0000
,
1000
0010
0100
0000
,
1000
0010
0100
0000
,
1000
0100
0010
0000
,
1000
0010
0100
0000
,
1000
0100
0010
0000
,
1000
0100
0010
0000
,
1000
0010
0100
0010
,
1001
0010
0100
0010
,
1001
0100
1010
0000
,
0101
1000
0100
0001
,
0100
0010
1001
0000
,
0001
1000
0100
0010
,
1000
1001
0100
0010
,
1000
0001
0100
0010
,
1000
0001
0100
0010
,
1000
0001
0010
0100
,
1000
0001
0010
0100
,
0001
1000
0100
0010
,
1000
0001
0010
0100
,
0001
1000
0100
0010
,
0001
1000
0010
0100
,
0010
1000
0010
0100
,
1000
0001
0100
0100
,
0010
1000
0010
0100
,
1000
0001
0100
0100
,
0010
1000
0010
0100
,
1000
0001
0100
0100
,
0010
1000
0010
0100
,
1001
0001
1000
0001
,
0100
1001
0010
0100
,
1001
1001
0100
0100
,
0010
1001
0010
0100
,
1001
0001
0100
0100
,
1000
0110
1001
0010
,
1000
0001
0100
0100
,
0110
1001
0010
0001
,
1000
0100
1001
0100
,
1000
0100
1000
0010
,
1000
0100
1000
0100
,
1000
0100
0001
0100
,
1000
0100
1000
0010
,
0001
0100
0001
1000
,
0100
0010
1000
0100
,
1000
0001
1000
0010
,
0100
0010
0001
0100
,
1000
0001
1000
0010
,
0100
0001
0100
0010
,
1000
0100
0001
0010
,
1000
0001
0010
0100
,
0001
1000
0010
0100
,
0001
1000
0010
0100
,
0001
1000
0100
0010
,
0001
1000
0010
0100
,
0010
1000
0010
0100
,
1001
1001
0100
0100
,
0110
1000
0010
0001
,
1000
0001
0100
0100
,
0010
0001
0010
0100
,
0010
1001
0100
0100
,
0110
1000
0010
0100
,
0110
0001
0100
0010
,
0100
0001
1000
0010
,
1000
0001
0100
0010
,
0100
1001
0010
0010
,
0001
1000
0010
1000
,
1000
0100
0010
0000
,
0001
0100
0010
0000
,
0001
0100
0010
0000
;

//---------------dance-single - Basic----------------
#NOTES:
     dance-single:
     :
     Beginner:
     5:
     0.152537,0.134423,0.000000,0.000000,0.000000,140.000000,140.000000,0.000000,0.000000,0.000000,0.000000,0.152537,0.134423,0.000000,0.000000,0.000000,140.000000,140.000000,0.000000,0.000000,0.000000,0.000000:
// measure 0
0000
0100
0000
0000
,  // measure 1
0001
0000
0100
0000
,  // measure 2
1000
0000
0100
0000
,  // measure 3
0000
0000
0100
0000
,  // measure 4
1000
0000
0010
0000
,  // measure 5
1000
0000
0010
0000
,  // measure 6
1000
0000
0010
0000
,  // measure 7
1000
0000
0010
0000
,  // measure 8
1000
0000
0010
0000
,  // measure 9
1000
0000
0001
0000
,  // measure 10
1000
0000
0010
0000
,  // measure 11
1000
0000
0010
0000
,  // measure 12
0100
0000
0100
0000
,  // measure 13
0000
0010
0000
1000
,  // measure 14
0000
0001
0000
0010
,  // measure 15
0000
0001
0000
0010
,  // measure 16
0000
0100
0000
0010
,  // measure 17
0000
0100
0000
0010
,  // measure 18
0000
0001
0000
0100
,  // measure 19
0000
0001
0000
0100
,  // measure 20
0001
0000
0100
0000
,  // measure 21
1000
0000
0010
0000
,  // measure 22
0001
0000
0100
0000
,  // measure 23
0001
0000
0010
0000
,  // measure 24
1000
0000
0010
0000
,  // measure 25
1000
0000
0100
0000
,  // measure 26
0010
0000
0010
0000
,  // measure 27
1000
0000
0001
0000
,  // measure 28
0010
0000
1000
0000
,  // measure 29
0001
0000
1000
0000
,  // measure 30
0001
0000
0010
0000
,  // measure 31
0001
0000
1000
0000
,  // measure 32
0010
0000
0100
0000
,  // measure 33
0010
0000
0100
0000
,  // measure 34
0010
0000
0010
0000
,  // measure 35
0100
0000
0010
0000
,  // measure 36
0100
0000
0010
0000
,  // measure 37
0001
0000
0010
0000
,  // measure 38
1000
0000
0010
0000
,  // measure 39
0100
0000
0010
0000
,  // measure 40
1000
0000
0010
0000
,  // measure 41
0001
0000
0010
0000
,  // measure 42
1000
0000
0001
0000
,  // measure 43
0010
0000
1000
0000
,  // measure 44
0001
0000
0010
0000
,  // measure 45
0100
0000
0001
0000
,  // measure 46
0010
0000
1000
0000
,  // measure 47
0100
0000
0001
0000
,  // measure 48
0100
0000
1000
0000
,  // measure 49
0010
0000
0100
0000
,  // measure 50
0010
0000
0001
0000
,  // measure 51
1000
0000
0010
0000
,  // measure 52
0001
0000
0010
0000
,  // measure 53
0001
0000
0010
0000
,  // measure 54
0001
0000
0100
0000
,  // measure 55
0010
0000
0010
0000
,  // measure 56
0010
0000
0010
0000
,  // measure 57
0100
0000
1000
0000
,  // measure 58
0001
0000
0010
0000
,  // measure 59
0100
0000
0100
0000
,  // measure 60
0010
0000
0100
0000
,  // measure 61
0010
0000
1000
0000
,  // measure 62
0001
0000
0001
0000
,  // measure 63
0100
0000
0010
0000
,  // measure 64
0100
0000
1000
0000
,  // measure 65
0010
0000
0100
0000
,  // measure 66
0010
0000
0100
0000
,  // measure 67
0001
0000
0010
0000
,  // measure 68
1000
0000
0010
0000
,  // measure 69
0001
0000
0100
0000
,  // measure 70
0001
0000
0100
0000
;
