#TITLE:Bowsette;
#SUBTITLE:;
#ARTIST:Dancing Monkeys Project;
#TITLETRANSLIT:;
#SUBTITLETRANSLIT:;
#ARTISTTRANSLIT:;
#GENRE:;
#CREDIT:Gorilla v1.1.3 (Dancing Monkeys v1.06);
#BANNER:maxresdefault (1).png;
#BACKGROUND:a5d.png;
#LYRICSPATH:;
#CDTITLE:;
#MUSIC:onlymp3.to - bowsette-HTAGgR893ZI-192k-1696867491.mp3;
#OFFSET:-1.384958;
#SAMPLESTART:35.115623;
#SAMPLELENGTH:12.000000;
#SELECTABLE:YES;
#BPMS:0.000000=184.994995
;
#STOPS:
;
#BGCHANGES:;
#KEYSOUNDS:;
#ATTACKS:;

//---------------dance-single - Basic----------------
#NOTES:
     dance-single:
     Basic:
     Easy:
     4:
     0.203956,0.184185,0.000000,0.004162,0.000000,343.000000,343.000000,0.000000,1.000000,0.000000,0.000000,0.203956,0.184185,0.000000,0.004162,0.000000,343.000000,343.000000,0.000000,1.000000,0.000000,0.000000:
// measure 0
0000
0010
0000
0000
,  // measure 1
0000
0100
0000
0000
,  // measure 2
0000
0001
0000
0000
,  // measure 3
0000
1000
0000
0000
,  // measure 4
0000
0010
0000
0000
,  // measure 5
0000
1000
0000
0100
,  // measure 6
0000
1000
0000
0001
,  // measure 7
0000
1000
0000
0001
,  // measure 8
0000
0001
0000
1000
,  // measure 9
0000
1000
0000
0010
,  // measure 10
0000
1000
0000
0001
,  // measure 11
0000
0001
0000
1000
,  // measure 12
0000
1000
0000
0100
,  // measure 13
0000
0010
0000
0001
,  // measure 14
0000
0100
0000
0010
,  // measure 15
0000
1000
0000
0100
,  // measure 16
0000
1000
0000
0010
,  // measure 17
0000
1000
0000
0010
,  // measure 18
0000
1000
0000
0010
,  // measure 19
0000
1000
0000
0010
,  // measure 20
0000
1000
0000
0100
,  // measure 21
0000
1000
0000
0010
,  // measure 22
0000
1000
0000
0010
,  // measure 23
0000
0010
0000
0001
,  // measure 24
0000
1000
0000
0010
,  // measure 25
0000
1000
0000
0001
,  // measure 26
0000
1000
0000
1000
,  // measure 27
0000
1000
0000
1000
,  // measure 28
0000
1000
0000
0010
,  // measure 29
0000
1000
0000
0100
,  // measure 30
0000
0010
0000
0001
,  // measure 31
0000
0010
0000
1000
,  // measure 32
0000
0010
0000
0100
,  // measure 33
0000
0010
0000
0001
,  // measure 34
0000
0010
0000
0010
,  // measure 35
0000
0010
0000
0010
,  // measure 36
0000
1000
0000
0001
,  // measure 37
0000
0100
0000
0010
,  // measure 38
0000
0100
0000
1000
,  // measure 39
0000
0100
0000
1000
,  // measure 40
0000
1000
0000
0001
,  // measure 41
0000
1000
0000
0001
,  // measure 42
0000
1000
0000
0001
,  // measure 43
0000
1000
0000
0010
,  // measure 44
0000
1000
0000
0001
,  // measure 45
0000
1000
0000
0100
,  // measure 46
0000
0010
0000
1000
,  // measure 47
0000
0100
0000
0010
,  // measure 48
0000
1000
0000
0001
,  // measure 49
0000
1000
0000
0100
,  // measure 50
0000
0100
0000
0001
,  // measure 51
0000
1000
0000
0001
,  // measure 52
0000
1000
0000
0001
,  // measure 53
0000
0001
0000
1000
,  // measure 54
0000
0010
0000
1000
,  // measure 55
0000
0010
0000
1000
,  // measure 56
0000
1000
0000
0001
,  // measure 57
0000
1000
0000
0001
,  // measure 58
0000
1000
0000
1000
,  // measure 59
0000
0100
0000
0100
,  // measure 60
0000
1000
0000
0001
,  // measure 61
0000
1000
0000
0001
,  // measure 62
0000
1000
0000
0100
,  // measure 63
0000
0010
0000
1000
,  // measure 64
0000
1000
0000
1000
,  // measure 65
0000
0010
0000
0001
,  // measure 66
0000
0100
0000
0001
,  // measure 67
0000
1000
0000
0010
,  // measure 68
0000
0001
0000
0010
,  // measure 69
0000
1000
0000
0001
,  // measure 70
0000
1000
0000
1000
,  // measure 71
0000
0001
0000
0100
,  // measure 72
0000
1000
0000
0100
,  // measure 73
0000
0010
0000
0100
,  // measure 74
0000
0010
0000
0010
,  // measure 75
0000
0100
0000
1000
,  // measure 76
0000
1000
0000
0010
,  // measure 77
0000
1000
0000
0010
,  // measure 78
0000
1000
0000
1000
,  // measure 79
0000
1000
0000
0010
,  // measure 80
0000
0100
0000
0010
,  // measure 81
0000
0010
0000
0001
,  // measure 82
0000
0010
0000
0001
,  // measure 83
0000
0010
0000
0100
,  // measure 84
0000
0010
0000
0001
,  // measure 85
0000
0100
0000
0010
,  // measure 86
0000
0100
0000
0001
,  // measure 87
0000
1000
0000
0100
,  // measure 88
0000
1000
0000
0001
,  // measure 89
0000
0010
0000
0010
,  // measure 90
0000
1000
0000
0010
,  // measure 91
0000
0001
0000
0100
,  // measure 92
0000
1000
0000
0010
,  // measure 93
0000
0001
0000
0100
,  // measure 94
0000
1000
0000
0100
,  // measure 95
0000
1000
0000
0001
,  // measure 96
0000
0010
0000
1000
,  // measure 97
0000
0010
0000
0100
,  // measure 98
0000
1000
0000
0010
,  // measure 99
0000
0001
0000
0100
,  // measure 100
0000
1000
0000
0010
,  // measure 101
0000
0001
0000
0010
,  // measure 102
0000
1000
0000
0100
,  // measure 103
0000
0001
0000
0100
,  // measure 104
0000
1000
0000
0001
,  // measure 105
0000
1000
0000
0100
,  // measure 106
0000
1000
0000
0001
,  // measure 107
0000
1000
0000
0100
,  // measure 108
0000
0010
0000
0001
,  // measure 109
0000
0100
0000
0001
,  // measure 110
0000
0100
0000
1000
,  // measure 111
0000
0100
0000
0100
,  // measure 112
0000
1000
0000
0010
,  // measure 113
0000
1000
0000
1000
,  // measure 114
0000
1000
0000
0001
,  // measure 115
0000
0100
0000
0010
,  // measure 116
0000
1000
0000
0010
,  // measure 117
0000
1000
0000
1000
,  // measure 118
0000
0001
0000
0010
,  // measure 119
0000
0010
0000
0001
,  // measure 120
0000
1000
0000
0010
,  // measure 121
0000
0010
0000
0001
,  // measure 122
0000
1000
0000
0001
,  // measure 123
0000
1000
0000
0010
,  // measure 124
0000
0010
0000
0001
,  // measure 125
0000
1000
0000
0010
,  // measure 126
0000
0001
0000
0010
,  // measure 127
0000
0000
0010
0000
,  // measure 128
0001
0000
0100
0000
,  // measure 129
0001
0000
0100
0000
,  // measure 130
0001
0000
0010
0000
,  // measure 131
1000
0000
0100
0000
,  // measure 132
1000
0000
0010
0000
,  // measure 133
1000
0000
0100
0000
,  // measure 134
1000
0000
0100
0000
,  // measure 135
0001
0000
0100
0000
,  // measure 136
1000
0000
0010
0000
,  // measure 137
0010
0000
0100
0000
,  // measure 138
1000
0000
0100
0000
,  // measure 139
1000
0000
0010
0000
,  // measure 140
1000
0000
0100
0000
,  // measure 141
1000
0000
0010
0000
,  // measure 142
1000
0000
0001
0000
,  // measure 143
0010
0000
1000
0000
,  // measure 144
0010
0000
0001
0000
,  // measure 145
0100
0000
1000
0000
,  // measure 146
0010
0000
0010
0000
,  // measure 147
1000
0000
0010
0000
,  // measure 148
0010
0000
0001
0000
,  // measure 149
0001
0000
0001
0000
,  // measure 150
0100
0000
0100
0000
,  // measure 151
0010
0000
0010
0000
,  // measure 152
0100
0000
0010
0000
,  // measure 153
0001
0000
0010
0000
,  // measure 154
0000
1000
0000
0001
,  // measure 155
0000
0010
0000
0001
,  // measure 156
0000
0100
0000
1000
,  // measure 157
0000
0100
0000
0100
,  // measure 158
0000
1000
0000
0010
,  // measure 159
0000
0100
0000
0100
,  // measure 160
0000
0100
0000
0010
,  // measure 161
0000
0010
0000
0001
,  // measure 162
0000
0001
0000
0010
,  // measure 163
0000
0100
0000
0100
,  // measure 164
0000
0010
0000
0100
,  // measure 165
0000
1000
0000
0100
,  // measure 166
0000
1000
0000
0010
,  // measure 167
0000
0001
0000
0010
,  // measure 168
0000
0010
0000
0100
,  // measure 169
0000
0010
0000
0100
,  // measure 170
0000
1000
0000
0010
,  // measure 171
0000
0100
0000
0010
,  // measure 172
0000
0100
0000
1000
,  // measure 173
0000
0001
0000
0100
,  // measure 174
0000
2000
0000
0000
,  // measure 175
0000
0000
0000
0000
,  // measure 176
0000
0000
0000
0000
,  // measure 177
3000
0000
0000
0000
;
