#VERSION:0.83;
#TITLE:Boomerang Theme;
#SUBTITLE:;
#ARTIST:Cartoonntetwork;
#TITLETRANSLIT:;
#SUBTITLETRANSLIT:;
#ARTISTTRANSLIT:;
#GENRE:;
#ORIGIN:;
#CREDIT:Gorilla v1.1.3 (Dancing Monkeys v1.06);
#BANNER:;
#BACKGROUND:;
#PREVIEWVID:;
#JACKET:;
#CDIMAGE:;
#DISCIMAGE:;
#LYRICSPATH:;
#CDTITLE:;
#MUSIC:Boomerang Theme Music - Generic.mp3;
#OFFSET:-0.879728;
#SAMPLESTART:48.946121;
#SAMPLELENGTH:12.000000;
#SELECTABLE:YES;
#BPMS:0.000=129.820;
#STOPS:;
#DELAYS:;
#WARPS:;
#TIMESIGNATURES:0.000=4=4;
#TICKCOUNTS:0.000=4;
#COMBOS:0.000=1;
#SPEEDS:0.000=1.000=0.000=0;
#SCROLLS:0.000=1.000;
#FAKES:;
#LABELS:0.000=Song Start;
#BGCHANGES:;
#KEYSOUNDS:;
#ATTACKS:
;

//---------------dance-single - Basic----------------
#NOTEDATA:;
#CHARTNAME:Basic;
#STEPSTYPE:dance-single;
#DESCRIPTION:Basic;
#CHARTSTYLE:;
#DIFFICULTY:Easy;
#METER:3;
#RADARVALUES:0.209016,0.224777,0.000000,0.015732,0.000000,93.000000,93.000000,0.000000,1.000000,0.000000,0.000000,0.000000,0.000000,0.000000,0.209016,0.224777,0.000000,0.015732,0.000000,93.000000,93.000000,0.000000,1.000000,0.000000,0.000000,0.000000,0.000000,0.000000;
#CREDIT:Basic;
#NOTES:
// measure 0
1000
0000
1000
0000
,  // measure 1
0010
0000
1000
0000
,  // measure 2
0100
0000
0010
0000
,  // measure 3
1000
0000
0010
0000
,  // measure 4
0100
0000
0010
0000
,  // measure 5
0001
0000
0010
0000
,  // measure 6
1000
0000
0010
0000
,  // measure 7
1000
0000
0001
0000
,  // measure 8
0010
0010
0000
1000
,  // measure 9
0000
0010
0000
0001
,  // measure 10
0000
0000
0000
0000
,  // measure 11
1000
1000
1000
1000
,  // measure 12
0010
0010
0010
0010
,  // measure 13
1000
1000
1000
1000
,  // measure 14
0010
0010
0010
0010
,  // measure 15
1000
1000
1000
1000
,  // measure 16
0001
0001
0001
0001
,  // measure 17
0010
0010
0010
1000
,  // measure 18
0000
0000
0000
0001
,  // measure 19
0001
0001
1000
1000
,  // measure 20
1000
0001
0001
0001
,  // measure 21
1000
1000
1000
0100
,  // measure 22
0100
0100
1000
1000
,  // measure 23
1000
0001
0001
0001
,  // measure 24
1000
1000
1000
0001
,  // measure 25
0001
0001
0000
0010
,  // measure 26
0000
0100
0000
1000
,  // measure 27
1000
1000
1000
0010
,  // measure 28
0010
0010
0010
0001
,  // measure 29
0001
0001
2000
0000
,  // measure 30
0000
3000
0000
1000
,  // measure 31
0000
0010
0000
0001
;
