#TITLE:Boogie Back;
#SUBTITLE:;
#ARTIST:Dancing Monkeys Project;
#TITLETRANSLIT:;
#SUBTITLETRANSLIT:;
#ARTISTTRANSLIT:;
#GENRE:;
#CREDIT:Gorilla v1.1.3 (Dancing Monkeys v1.06);
#BANNER:mqdefault.png;
#BACKGROUND:download.png;
#LYRICSPATH:;
#CDTITLE:;
#MUSIC:onlymp3.to - Boogie Back-JznJhNm7uf8-192k-1696866617.mp3;
#OFFSET:-1.512375;
#SAMPLESTART:48.379040;
#SAMPLELENGTH:12.000000;
#SELECTABLE:YES;
#BPMS:0.000000=128.022995
;
#STOPS:
;
#BGCHANGES:;
#KEYSOUNDS:;
#ATTACKS:;

//---------------dance-single - Basic----------------
#NOTES:
     dance-single:
     Basic:
     Easy:
     4:
     0.285432,0.231200,0.000000,0.000000,0.000000,210.000000,210.000000,0.000000,0.000000,0.000000,0.000000,0.285432,0.231200,0.000000,0.000000,0.000000,210.000000,210.000000,0.000000,0.000000,0.000000,0.000000:
// measure 0
0000
0000
0000
0000
,  // measure 1
0000
0000
0000
0001
,  // measure 2
1000
0100
0010
0001
,  // measure 3
1000
0001
0100
0010
,  // measure 4
1000
0100
0010
0001
,  // measure 5
1000
0100
0010
1000
,  // measure 6
1000
0100
0010
1000
,  // measure 7
0001
0100
0010
0001
,  // measure 8
1000
0010
0100
0001
,  // measure 9
0010
1000
0001
0100
,  // measure 10
1000
0001
0100
0010
,  // measure 11
1000
0001
0010
0100
,  // measure 12
1000
0001
0100
0010
,  // measure 13
1000
0001
0100
0010
,  // measure 14
1000
0001
0100
0010
,  // measure 15
0001
1000
0100
0010
,  // measure 16
0001
1000
0010
0100
,  // measure 17
1000
0001
1000
0010
,  // measure 18
1000
0100
0001
0010
,  // measure 19
1000
0100
0001
0010
,  // measure 20
1000
0100
0001
1000
,  // measure 21
0010
1000
0100
0010
,  // measure 22
1000
1000
0100
0010
,  // measure 23
0001
1000
0100
0001
,  // measure 24
0010
1000
0001
1000
,  // measure 25
0010
0100
1000
0001
,  // measure 26
1000
0001
0100
1000
,  // measure 27
0010
1000
0001
1000
,  // measure 28
0001
0100
1000
0001
,  // measure 29
0010
1000
0100
1000
,  // measure 30
0001
1000
0010
0100
,  // measure 31
0001
1000
0100
0001
,  // measure 32
1000
0100
0010
1000
,  // measure 33
0001
0010
0100
1000
,  // measure 34
0001
1000
0010
0100
,  // measure 35
0001
1000
0010
0100
,  // measure 36
1000
0100
0010
1000
,  // measure 37
0001
0010
0100
1000
,  // measure 38
0010
0001
0100
0010
,  // measure 39
0001
1000
0100
0010
,  // measure 40
1000
0001
0010
0100
,  // measure 41
1000
0001
0010
0100
,  // measure 42
0001
1000
0100
0010
,  // measure 43
1000
0001
0010
0100
,  // measure 44
1000
0001
0100
0010
,  // measure 45
0001
1000
0010
0100
,  // measure 46
1000
0010
0001
0100
,  // measure 47
1000
0010
0001
0010
,  // measure 48
1000
0100
0001
1000
,  // measure 49
0010
0001
0100
0010
,  // measure 50
1000
0010
1000
0100
,  // measure 51
0001
1000
0010
1000
,  // measure 52
0010
0001
0100
0001
,  // measure 53
1000
0010
0001
1000
,  // measure 54
0100
0000
0000
0000
;

//---------------dance-single - Basic----------------
#NOTES:
     dance-single:
     :
     Beginner:
     4:
     0.145434,0.130228,0.000000,0.000000,0.000000,107.000000,107.000000,0.000000,0.000000,0.000000,0.000000,0.145434,0.130228,0.000000,0.000000,0.000000,107.000000,107.000000,0.000000,0.000000,0.000000,0.000000:
0000
0000
0000
0000
,
0000
0000
0000
0001
,
0000
0100
0000
0001
,
0000
0001
0000
0010
,
0000
0100
0000
0001
,
0000
0100
0000
1000
,
0000
0100
0000
1000
,
0000
0100
0000
0001
,
0000
0010
0000
0001
,
0000
1000
0000
0100
,
0000
0001
0000
0010
,
0000
0001
0000
0100
,
0000
0001
0000
0010
,
0000
0001
0000
0010
,
0000
0001
0000
0010
,
0000
1000
0000
0010
,
0000
1000
0000
0100
,
0000
0001
0000
0010
,
0000
0100
0000
0010
,
0000
0100
0000
0010
,
0000
0100
0000
1000
,
0000
1000
0000
0010
,
0000
1000
0000
0010
,
0000
1000
0000
0001
,
0000
0100
0000
1000
,
0000
0100
0000
0010
,
0000
0001
0000
0100
,
0000
0010
0000
1000
,
0000
0010
0000
0001
,
0000
0100
0000
1000
,
0000
0001
0000
0100
,
0000
1000
0000
0001
,
0000
0100
0000
1000
,
0000
0010
0000
1000
,
0000
1000
0000
0100
,
0000
1000
0000
0001
,
0000
0100
0000
1000
,
0000
0010
0000
1000
,
0000
0001
0000
0010
,
0000
1000
0000
0010
,
0000
0001
0000
0100
,
0000
0001
0000
0100
,
0000
1000
0000
0010
,
0000
0001
0000
0100
,
0000
0001
0000
0010
,
0000
1000
0000
0100
,
0000
0010
0000
0100
,
0000
0001
0000
0010
,
0000
0100
0000
1000
,
0000
0001
0000
0010
,
0000
0010
0000
0100
,
0000
1000
0000
1000
,
0000
0010
0000
0001
,
0000
0010
0000
1000
,
0000
0010
0000
1000
;
