#VERSION:0.83;
#TITLE:BoBoBo Bo Bo BoBo ending 1;
#SUBTITLE:Shiawase;
#ARTIST:BoBoBo Bo Bo BoBo;
#TITLETRANSLIT:;
#SUBTITLETRANSLIT:;
#ARTISTTRANSLIT:;
#GENRE:;
#ORIGIN:;
#CREDIT:Gorilla v1.1.3 (Dancing Monkeys v1.06);
#BANNER:;
#BACKGROUND:;
#PREVIEWVID:;
#JACKET:;
#CDIMAGE:;
#DISCIMAGE:;
#LYRICSPATH:;
#CDTITLE:;
#MUSIC:BoBoBo Bo Bo BoBo ending 1.mp3;
#OFFSET:-0.441179;
#SAMPLESTART:40.851608;
#SAMPLELENGTH:12.000000;
#SELECTABLE:YES;
#BPMS:0.000=148.479;
#STOPS:;
#DELAYS:;
#WARPS:;
#TIMESIGNATURES:0.000=4=4;
#TICKCOUNTS:0.000=4;
#COMBOS:0.000=1;
#SPEEDS:0.000=1.000=0.000=0;
#SCROLLS:0.000=1.000;
#FAKES:;
#LABELS:0.000=Song Start;
#BGCHANGES:;
#KEYSOUNDS:;
#ATTACKS:
;

//---------------dance-single - Basic----------------
#NOTEDATA:;
#CHARTNAME:Basic;
#STEPSTYPE:dance-single;
#DESCRIPTION:Basic;
#CHARTSTYLE:;
#DIFFICULTY:Easy;
#METER:3;
#RADARVALUES:0.182453,0.264825,0.000000,0.225383,0.000000,102.000000,102.000000,0.000000,18.000000,0.000000,0.000000,0.000000,0.000000,0.000000,0.182453,0.264825,0.000000,0.225383,0.000000,102.000000,102.000000,0.000000,18.000000,0.000000,0.000000,0.000000,0.000000,0.000000;
#CREDIT:Basic;
#NOTES:
// measure 0
0000
0001
0001
0001
,  // measure 1
0000
0001
1000
0010
,  // measure 2
0010
0000
0200
0000
,  // measure 3
0300
0000
1000
0100
,  // measure 4
1000
0001
0000
0010
,  // measure 5
0001
0010
0010
1000
,  // measure 6
1000
0100
1000
0010
,  // measure 7
0010
0001
0010
0010
,  // measure 8
0010
0010
0000
0000
,  // measure 9
0001
0001
0100
0100
,  // measure 10
0001
0001
0000
0100
,  // measure 11
2000
3000
1000
1000
,  // measure 12
0002
0000
0003
0000
,  // measure 13
0001
0200
0300
0000
,  // measure 14
1000
1000
2000
3000
,  // measure 15
0001
2000
0000
3000
,  // measure 16
0020
0000
0000
0030
,  // measure 17
0000
1000
0000
0010
,  // measure 18
0000
1000
0000
1000
,  // measure 19
0000
0001
1000
0000
,  // measure 20
1000
1000
0002
0000
,  // measure 21
0003
0000
0000
1000
,  // measure 22
1000
1000
0000
0002
,  // measure 23
0000
0003
0000
0100
,  // measure 24
0000
0001
0100
0100
,  // measure 25
0000
1000
0000
0002
,  // measure 26
0000
0000
0000
0000
,  // measure 27
0003
0000
0000
0000
,  // measure 28
0001
0001
0001
0000
,  // measure 29
1000
1000
1000
0010
,  // measure 30
0002
0000
0000
0003
,  // measure 31
0200
0000
0000
0000
,  // measure 32
0300
0000
1000
0000
,  // measure 33
0100
1000
1000
0010
,  // measure 34
0000
0000
1000
1000
,  // measure 35
0001
1000
1000
1000
,  // measure 36
0000
0000
0002
0000
,  // measure 37
0000
0003
2000
0000
,  // measure 38
0000
3000
0020
0000
,  // measure 39
0000
0030
0002
0000
,  // measure 40
0000
0003
0000
0001
,  // measure 41
0001
0001
0000
0100
,  // measure 42
1000
0100
0000
0001
,  // measure 43
0000
1000
1000
0002
,  // measure 44
0000
0000
0003
0000
,  // measure 45
0000
0000
0001
0001
,  // measure 46
2000
0000
0000
0000
,  // measure 47
3000
0000
0000
0000
;
